#TITLE:スノーホワイト;
#SUBTITLE:;
#ARTIST:RoughSketch;
#TITLETRANSLIT:;
#SUBTITLETRANSLIT:;
#ARTISTTRANSLIT:;
#GENRE:;
#CREDIT:;
#MUSIC:Snow White.ogg;
#BANNER:;
#BACKGROUND:Snow White-bg.png;
#CDTITLE:;
#SAMPLESTART:84.163;
#SAMPLELENGTH:17.944;
#SELECTABLE:YES;
#OFFSET:1.071;
#BPMS:0.000=107.000
,20.000=214.000
,124.000=428.000
,156.000=107.000
,204.000=214.000
,356.000=107.000
,367.000=428.000
,371.000=214.000
;
#STOPS:367.000=0.035
,367.250=0.035
,367.500=0.035
,367.750=0.035
,368.000=0.035
,368.250=0.035
,368.500=0.035
,368.750=0.035
,369.000=0.035
,369.250=0.035
,369.500=0.035
,369.750=0.035
,370.000=0.035
,370.250=0.035
,370.500=0.035
,370.750=0.035
;
#BGCHANGES:;
#FGCHANGES:;
//--------------- dance-single - Talkion ----------------
#NOTES:
     dance-single:
     Talkion:
     Challenge:
     19:
     0,0,0,0,0:
0000
0000
0000
0000
,
0000
0000
0000
0000
,
0000
0000
0000
0000
,
0000
0000
0000
0000
,
0000
0000
0000
0000
,
1000
0000
0100
0000
0010
0000
0001
1000
0001
0000
0100
0000
0010
0001
0010
0000
,
0100
0000
0010
0000
1000
0000
0001
1000
0001
0000
0010
0000
0100
1000
0100
0000
,
0010
0000
0001
0000
1000
0000
0010
0001
0010
0000
0100
0000
0001
1000
0001
0000
,
0010
0000
0100
0000
1000
0000
0100
0010
0100
0000
0001
0000
0100
1000
0100
0000
,
0010
0000
0001
0000
1000
0000
0010
1000
0010
0000
0100
0000
1000
0100
1000
0000
,
0001
0000
0010
0000
1000
0000
0001
1000
0001
0000
0010
0000
0100
0010
0100
0000
,
1000
0001
1000
0001
0100
0010
1000
0001
1000
0100
0010
0001
1000
0001
0100
0010
,
1000
0001
1000
0100
0010
0001
0100
0010
0100
0010
1000
0100
0010
0001
1000
0001
,
0200
0300
0110
0000
0020
0030
0110
0000
,
1000
0010
1000
0001
0010
0001
1000
0010
1000
0001
0010
0001
1000
0000
0000
0000
,
0011
0001
1010
1000
0011
0010
1100
1000
,
0101
0000
0001
0000
1100
0000
0100
0000
1001
0000
0001
0000
0100
0010
0100
0010
,
1000
0001
0011
0010
0110
0100
1100
1000
,
1020
0000
0130
0000
0110
0110
0000
0000
,
0101
0001
1100
1000
0101
0100
1010
1000
,
0011
0000
0001
0000
1010
0000
0010
0000
1001
0000
1000
0000
0010
0100
0010
0100
,
0001
1001
0000
1000
1010
0010
0000
0020
,
0100
0130
0011
1010
,
1001
0000
1001
0000
0110
0000
0000
0000
0001
0000
0010
0001
0010
0000
1000
0000
,
0010
0000
0001
1000
0001
0000
0100
0000
1000
0000
0100
0001
0100
0000
0010
0000
,
1000
0000
0100
0001
0100
0000
0010
0000
0001
0000
0100
1000
0100
0000
0010
0000
,
1000
0000
0001
1000
0001
0000
0010
0000
0110
0000
0100
0000
1001
0000
0000
0000
,
1000
0000
0010
0100
1000
0000
0100
0000
0010
0000
1000
0200
0010
0000
0310
0000
,
0001
0000
0100
0010
0001
0000
0010
0000
0100
0000
0001
0020
0100
0000
0130
0000
,
1000
0000
0001
0100
0001
0000
0100
0010
0100
0000
0010
1000
0010
0000
1000
0000
,
0001
0010
0001
0010
0100
1000
0100
1000
0001
0000
0000
0000
1001
0000
0000
0000
,
0220
0000
0000
0000
,
0000
0000
0000
0000
,
0000
0000
0000
0000
,
0000
0000
0330
0000
,
1100
0000
1000
0100
0010
0000
0011
0000
,
0001
0100
0010
0000
1010
0000
1000
0100
,
0001
0100
0110
0000
,
1000
0001
1000
0001
0100
0000
0000
0000
,
1001
0000
0011
0001
0110
0000
1010
1000
0110
0000
0101
0100
1001
0000
1100
0100
,
1001
0000
0011
0010
1100
0000
1010
0010
0101
0000
0011
0010
1000
0100
0101
0000
,
1001
0000
1010
0010
0011
0000
1100
0100
0101
0000
1001
0100
0110
0010
1000
0100
,
0020
0000
0031
0100
1000
0100
0010
0001
0010
1000
1100
0100
0110
0010
0011
0001
,
2001
0000
0000
0000
0000
0000
3010
0000
0001
0000
0010
0000
0210
0000
0000
0000
0000
0000
0301
0000
0010
0000
1000
0000
1020
0000
0000
0000
0000
0000
0130
0000
1000
0000
0001
0000
0201
0000
0000
0000
0000
0000
0310
0000
0000
0010
0000
0000
,
1002
0000
0000
0000
0000
0000
0013
0000
1000
0000
0010
0000
0210
0000
0000
0000
0000
0000
1300
0000
0010
0000
0001
0000
0021
0000
0000
0000
0000
0000
0130
0000
0001
0000
1000
0000
0200
0000
0000
0010
0000
0000
0310
0000
0000
0000
0000
0000
,
1002
0000
0000
0000
0000
0000
0103
0000
1000
0000
0001
0000
0021
0000
0000
0000
0000
0000
0130
0000
0001
0000
1000
0000
1200
0000
0000
0000
0000
0000
0310
0000
1000
0000
0001
0000
0201
0000
0000
0000
0000
0000
1300
0000
0000
1000
0000
0000
,
0001
0100
0001
0100
0010
1000
0100
0010
0100
0010
0001
1000
0010
0100
0010
0100
0001
0000
0010
0000
0100
0000
1000
0000
0010
0000
0100
0000
0002
0000
0000
0000
,
1003
0000
1000
0100
0000
0100
0010
0001
0000
0001
0100
1000
0200
0000
0310
0000
,
1000
0100
0010
0001
0000
0001
0100
0010
0200
0000
0301
0000
1000
0000
0000
0000
,
0001
0000
0001
0010
0000
0010
0100
1000
0000
1000
0010
0001
0020
0000
0130
0000
,
0001
0000
0010
0000
0100
0000
1000
0000
0000
0000
1000
0000
0010
0000
0100
0000
0020
0000
0000
0000
1030
0000
0000
0000
0001
1000
0001
1000
0100
0010
0100
0010
,
0001
0000
1000
0000
0010
0000
0100
1000
0100
0000
0001
0000
0010
0100
0010
0000
,
1000
0000
0001
0000
0100
0000
0010
0001
0010
0000
0100
0000
1000
0001
1000
0000
,
0010
0000
0001
0000
1000
0000
0100
0001
0100
0000
0010
0000
1000
0001
1000
0000
,
0100
0000
0001
0000
1000
0000
0010
0001
0010
0000
0100
0000
1000
0001
1000
0000
,
0010
0000
0100
0000
1000
0000
0001
0010
0100
0000
0010
0000
1000
0001
1000
0000
,
0100
0000
0010
0000
1000
0000
0001
0100
0010
0000
0100
0000
1000
0001
1000
0000
,
0010
0100
0010
0100
0001
1000
0100
0010
0100
0010
0001
1000
0010
0100
0001
0010
,
0100
1000
0010
0100
0010
0100
0001
0010
0100
1000
0001
1000
0010
0100
0001
1000
,
0100
0110
0000
0000
0000
0000
0000
0000
,
0001
1001
0000
0000
0000
0000
0000
0000
,
2000
3000
1010
0000
0002
0003
0011
0000
,
1000
0100
1000
0001
0100
0001
1000
0100
1000
0001
0100
0001
1000
0000
0000
0000
,
1010
0000
0010
0100
0010
0000
0100
0001
1000
0000
0100
0001
0100
0000
0010
0000
,
0011
0000
0001
1000
0001
0000
0100
0010
0001
0000
0010
0100
0010
0000
1000
0000
,
1001
0000
0001
0010
0100
0000
1000
0010
0100
0010
1000
0010
0100
0000
0010
0000
,
0110
0000
0100
0001
0010
0000
0100
1000
0100
0001
0100
1000
0100
0000
0010
0000
,
0011
0000
0001
1000
0001
0000
0100
1000
0100
0000
0001
0010
0001
0000
0100
0000
,
0110
0000
0010
1000
0100
0000
0001
0100
0001
0000
0100
1000
0100
0000
0010
0000
,
0110
0000
0000
0000
1100
0000
1100
0000
0000
0000
0001
0100
1000
0100
0001
0000
,
0000
0000
0100
0010
0110
0000
1000
0000
1001
0000
0001
0000
1001
0000
0000
0000
,
0101
0000
0100
0010
0100
0000
0010
1000
0001
0000
0010
1000
0010
0000
0100
0000
,
1100
0000
1000
0001
1000
0000
0010
0100
1000
0000
0100
0010
0100
0000
0001
0000
,
1001
0000
1000
0100
0010
0000
0001
0100
0010
0100
0001
0100
0010
0000
0100
0000
,
0001
1000
0001
0010
0100
1000
0001
1000
0010
0001
0010
1000
0010
0100
0001
1000
,
0001
0000
0010
1000
0010
0000
0001
0010
1000
0000
1000
0010
0001
0000
1000
0000
,
0001
0000
0100
1000
0100
0000
0001
0100
1000
0000
1000
0100
0001
0000
1000
0000
,
1001
0000
0001
0010
0001
0010
0110
0000
0000
0000
0001
0000
1001
0000
1000
0010
,
1000
0010
0110
0000
0000
0000
1002
0000
0023
0000
0230
0000
2300
0000
3002
0000
,
0203
0000
0000
0301
1000
0100
0101
0000
0000
0110
0000
0100
,
1000
0001
0001
0100
1000
1000
0001
0010
0010
1000
0100
0100
,
0010
0000
0000
0001
0100
1000
1100
0000
0000
0110
0000
0010
,
1000
0100
0100
0001
0100
0100
1000
0001
0100
0110
0000
0000
,
1001
0000
0000
1000
0001
0010
1010
0000
0000
0110
0000
0010
,
0001
1000
1000
0010
0001
0001
1000
0100
0100
0001
0010
0010
,
0100
0000
1000
0001
1000
0010
0100
0001
0010
0100
1000
0010
0100
0001
0010
0100
,
1000
0001
0100
1000
0100
0001
1000
0001
0010
1000
0010
0001
1000
0001
0100
0010
,
0100
0010
1010
0100
0010
0011
1000
0010
,
0110
0001
0010
0110
1001
0010
1100
0010
,
0102
0000
0000
0000
0000
0000
0000
0000
0000
0000
0000
0000
0000
0000
0000
2000
,
0000
0000
0000
0000
,
0000
0000
0000
0000
0000
0000
0000
0000
3003
0000
0000
0000
0001
0010
0100
0001
,
1000
0010
0100
1000
0001
0100
0010
0001
1000
0100
0010
1000
0000
0000
0000
0000
;
//--------------- dance-double - Talkion ----------------
#NOTES:
     dance-double:
     Talkion:
     Challenge:
     19:
     0,0,0,0,0:
00000000
00000000
00000000
00000000
,
00000000
00000000
00000000
00000000
,
00000000
00000000
00000000
00000000
,
00000000
00000000
00000000
00000000
,
00000000
00000000
00000000
00000000
,
10000000
00000000
01000000
00000000
00100000
00000000
00001000
00010000
00001000
00000000
01000000
00000000
00100000
00010000
00100000
00000000
,
00010000
00000000
00001000
00000000
00000010
00000000
00000100
00001000
00000100
00000000
00001000
00000000
00000001
00000100
00000001
00000000
,
00001000
00000000
00000010
00000000
00000100
00000000
00001000
00010000
00001000
00000000
00010000
00000000
01000000
00100000
01000000
00000000
,
10000000
00000000
00010000
00000000
01000000
00000000
00100000
00010000
00100000
00000000
00010000
00000000
00001000
00010000
00001000
00000000
,
00000100
00000000
00000001
00000000
00000010
00000000
00000100
00001000
00000100
00000000
00000010
00000000
00000001
00000100
00000001
00000000
,
00000100
00000000
00001000
00000000
00010000
00000000
01000000
00010000
01000000
00000000
00100000
00000000
00010000
10000000
00010000
00000000
,
10000000
00100000
10000000
00100000
10000000
00100000
01000000
00010000
00100000
00001000
00100000
00001000
00100000
00001000
00010000
00000100
,
00001000
00000010
00001000
00000010
00001000
00000010
00000100
00000001
00000010
00000100
00000010
00000100
00000010
00000100
00010000
00001000
,
00020000
00030000
01100000
00000000
00002000
00003000
00000110
00000000
,
00010000
00001000
00100000
00001000
00010000
00000100
00010000
00001000
00100000
00001000
00010000
00000100
00010000
00000000
00000000
00000000
,
00101000
00010000
00110000
01000000
11000000
00010000
01010000
00001000
,
00011000
00000000
00000100
00000000
00001100
00000000
00000001
00000000
00000011
00000000
00000100
00000000
00010000
00001000
00010000
00001000
,
00010000
00000000
00010100
00001000
00001100
00000010
00000011
00001000
,
00001010
00000000
00010100
00000000
00011000
00011000
00000000
00000000
,
10100000
10000000
00110000
00010000
01001000
01000000
00011000
00001000
,
00010100
00000000
00010000
00000000
00001100
00000000
00000100
00000000
00000011
00000000
00000010
00000000
00000100
00010000
00000100
00010000
,
00001000
00011000
00000000
00010000
01010000
01000000
00000000
02000000
,
10000000
13000000
00110000
00001100
,
00000011
00000000
00000011
00000000
00000011
00000000
00000000
00000000
00000001
00000000
00000100
00000001
00000100
00000000
00001000
00000000
,
00010000
00000000
00001000
00000010
00001000
00000000
00010000
00000000
01000000
00000000
10000000
00010000
10000000
00000000
00100000
00000000
,
00010000
00000000
00001000
00010000
00001000
00000000
00000010
00000000
00001000
00000000
00010000
00100000
00010000
00000000
00001000
00000000
,
00010000
00000000
01000000
10000000
01000000
00000000
00100000
00000000
00110000
00000000
00001000
00000000
00011000
00000000
00000000
00000000
,
00010000
00000000
00000100
00001000
00010000
00000000
00001000
00000000
00000100
00000000
00000010
00000200
00010000
00000000
00010300
00000000
,
00001000
00000000
00100000
00010000
00001000
00000000
00010000
00000000
00100000
00000000
01000000
00200000
00001000
00000000
00301000
00000000
,
01000000
00010000
01000000
00010000
10000000
01000000
10000000
00000000
01000000
00010000
01000000
00010000
00001000
00010000
00001000
00000000
,
00000100
00000001
00001000
00000100
00000010
00000001
00001000
00000100
00010000
00000000
00000000
00000000
00001000
00000000
00000000
00000000
,
00022000
00000000
00000000
00000000
,
00000000
00000000
00000000
00000000
,
00000000
00000000
00000000
00000000
,
00000000
00000000
00033000
00000000
,
00010000
00000000
01000000
00100000
01000000
00000000
00010000
00000000
,
00001000
00000010
00001000
00000000
00010000
00000000
00000010
00000100
,
00000010
00010000
00011000
00000000
,
01100000
00100000
10010000
00000000
,
10100000
00000000
01010000
00001000
00011000
00000000
00000110
00000010
00001001
00000000
00001100
00010000
00011000
00000000
01100000
00100000
,
10010000
00000000
01010000
00010000
00011000
00000000
00001010
00000010
00000011
00000000
00000010
00001000
00100000
00001000
00000010
00000000
,
00000101
00000000
00001010
00010000
00011000
00000000
01100000
01000000
10010000
00000000
00110000
00001000
00011000
00000000
00000100
00000010
,
00000002
00000000
00000103
00010000
01000000
10000000
00010000
00001000
00010000
00001000
00011000
00000000
00000110
00000110
00000110
00000000
,
00001001
00000000
00000000
00000000
00000000
00000000
00000001
00000000
00000100
00000000
00001000
00000000
00010000
00000000
00000000
00000000
00000000
00000000
01000000
00000000
10000000
00000000
00100000
00000000
00010000
00000000
00000000
00000000
00000000
00000000
00001000
00000000
00000010
00000000
00000001
00000000
00000100
00000000
00000000
00000000
00000000
00000000
00000110
00000000
00000000
00000010
00000000
00000000
,
00001001
00000000
00000000
00000001
00000010
00001000
00010000
00000000
00000000
00100000
10000000
01000000
00010000
00000000
00000000
00001000
00000100
00000001
00000010
00000000
00000000
00000110
00000000
00000000
,
00011000
00000000
00000000
00010000
01000000
00100000
00010000
00000000
00000000
00001000
00000100
00000010
00001000
00000000
00000000
00010000
01000000
00100000
00010000
00000000
00000000
00001000
00000000
00000000
,
00000100
00000010
00000100
00000010
00001000
00000001
00000010
00000100
00010000
00001000
00010000
00001000
00100000
01000000
10000000
00010000
10000000
00000000
00100000
00000000
01000000
00000000
00010000
00000000
00100000
00000000
00001000
00000000
00020000
00000000
00000000
00000000
,
00031000
00000000
00000100
00000001
00000000
00000100
00001000
00010000
00000000
00100000
10000000
00000000
00010000
00000000
00001000
00000000
,
00000001
00000010
00000100
00001000
00000000
00010000
00100000
01000000
10000000
00000000
00010000
00000000
10010000
00000000
00000000
00000000
,
10000000
00000000
01000000
00010000
00000000
00001000
00000100
00000001
00000000
00000010
00001000
00000000
00010000
00000000
10000000
00000000
,
00010000
00000000
00001000
00000010
00000000
00000001
00000100
00001000
00010000
00000000
00001000
00000000
00011000
00000000
00000000
00000000
,
00100000
00000000
00010000
00000000
01000000
00000000
00100000
00010000
00100000
00000000
00010000
00000000
00001000
00000100
00001000
00000000
,
00000100
00000000
00000001
00000000
00000010
00000000
00001000
00000010
00001000
00000000
00000010
00000000
00000100
00001000
00000100
00000000
,
00010000
00000000
00001000
00000000
00100000
00000000
00010000
01000000
00010000
00000000
01000000
00000000
00100000
00010000
00100000
00000000
,
00010000
00000000
00001000
00000000
00000010
00000000
00000100
00010000
00000100
00000000
00010000
00000000
00001000
00100000
00001000
00000000
,
01000000
00000000
00010000
00000000
00100000
00000000
01000000
10000000
01000000
00000000
00010000
00000000
00001000
00010000
00001000
00000000
,
00000100
00000000
00000001
00000000
00001000
00000000
00000100
00000010
00000100
00000000
00010000
00000000
00001000
00010000
00001000
00000000
,
01000000
00100000
01000000
00100000
01000000
00100000
10000000
00010000
00100000
00010000
00100000
00010000
00100000
00001000
00010000
00000100
,
00001000
00000100
00001000
00000100
00001000
00000100
00001000
00000001
00000100
00000010
00000100
00000010
00000100
00000010
00010000
00001000
,
00010000
00011000
00000000
00000000
00000000
00000000
00000000
00000000
,
00100000
01100000
00000000
00000000
00000000
00000000
00000000
00000000
,
00002000
00003000
00000110
00000000
00020000
00030000
01100000
00000000
,
00001000
00010000
00000100
00010000
00001000
00100000
00001000
00010000
00000100
00010000
00001000
00100000
00001000
00000000
00000000
00000000
,
00010100
00000000
00001000
00000001
00001000
00000000
00000010
00000100
00001000
00000000
00010000
01000000
00100000
00000000
00010000
00000000
,
01010000
00000000
10000000
00010000
10000000
00000000
00100000
00010000
00001000
00000000
00000100
00000001
00000010
00000000
00000100
00000000
,
00001100
00000000
00010000
00001000
00010000
00000000
01000000
00010000
01000000
00100000
01000000
10000000
01000000
00000000
00100000
00000000
,
00110000
00000000
00001000
00010000
00001000
00000000
00000010
00001000
00000010
00000100
00000010
00000001
00000010
00000000
00000001
00000000
,
00000101
00000000
00000010
00001000
00000010
00000000
00000100
00001000
00010000
00000000
00001000
00010000
01000000
00000000
10000000
00000000
,
10010000
00000000
00100000
00010000
01000000
00000000
00100000
00010000
00001000
00000000
00000100
00000010
00001000
00000000
00000001
00000000
,
00001001
00000000
00000000
00000000
00010100
00000000
00010100
00000000
00000000
00000000
00010000
01000000
10000000
01000000
00010000
00000000
,
00000000
00000000
00000100
00001000
00000100
00000000
00000010
00000000
00001001
00000000
00001000
00000000
00001001
00000000
00000000
00000000
,
00000011
00000000
00000100
00010000
00001000
00000000
00100000
00010000
01000000
00000000
10000000
01000000
00010000
00000000
00100000
00000000
,
11000000
00000000
00100000
00010000
00001000
00000000
00010000
00001000
00000100
00000000
00000010
00000100
00001000
00000000
00000001
00000000
,
00001001
00000000
00000100
00001000
00000100
00000000
00010000
00001000
00100000
00001000
00010000
00001000
00100000
00000000
00010000
00000000
,
10000000
00100000
01000000
00100000
01000000
00010000
00100000
00001000
00010000
00000100
00001000
00000010
00000100
00000001
00000010
00000100
,
00010000
00000000
00001000
00010000
00001000
00000000
00001000
00100000
00010000
00000000
00010000
01000000
00100000
00000000
10000000
00000000
,
00010000
00000000
00100000
00001000
00100000
00000000
00100000
00001000
00010000
00000000
00010000
00000100
00001000
00000000
00000010
00000000
,
00000110
00000000
00000000
00000000
00000100
00001000
00010000
00000000
00000000
00000000
01010000
00000000
00000000
00000000
00010000
00001000
,
00000100
00000001
00001000
00000000
00000000
00000000
00000200
00000000
00020300
00000000
00230000
00000000
20300000
00000000
30200000
00000000
,
00320000
00000000
00000000
00030100
00000010
00000100
00000010
00000000
00000000
00001001
00000000
00000000
,
00000001
00000100
00001000
00100000
01000000
00100000
00001000
00000100
00000001
00001000
00000100
00000100
,
00010000
00000000
00000000
01000000
00100000
01000000
00100000
00000000
00000000
10010000
00000000
00000000
,
10000000
00100000
00010000
00001000
00000010
00000001
00000100
00001000
00010000
00011000
00000000
00000000
,
00011000
00000000
00000000
00100000
01000000
00100000
01000000
00000000
00000000
10010000
00000000
00000000
,
10000000
00100000
00010000
00000100
00000010
00000100
00010000
00100000
10000000
00010000
00100000
00100000
,
00001000
00000000
00010000
00000000
00000100
00001000
00000100
00001000
00000001
00000100
00000010
00001000
00000100
00010000
00001000
00100000
,
00010000
01000000
00100000
00010000
00001000
00010000
00001000
00010000
01000000
00100000
00010000
10000000
00100000
10000000
00100000
00010000
,
00001000
00000000
00001010
00000011
00000000
00001010
00011000
00000000
,
00101000
00100000
00110000
00010000
10010000
10000000
10100000
00100000
,
00120000
00000000
00000000
00000000
00000000
00000000
00000000
00000000
00000000
00000000
00000000
00000000
00000000
00000000
00000000
00002000
,
00000000
00000000
00000000
00000000
,
00000000
00000000
00000000
00000000
00000000
00000000
00000000
00000000
00033000
00000000
00000000
00000000
00010000
00000100
00001000
00000010
,
00001000
00000100
00010000
00001000
00100000
00010000
01000000
00010000
00100000
00001000
00010000
00001000
00000000
00000000
00000000
00000000
;
