#TITLE:見習い天使と星降りの丘;
#SUBTITLE:;
#ARTIST:DJ TOTTO;
#TITLETRANSLIT:Apprentice angel on shooting star hill;
#SUBTITLETRANSLIT:;
#ARTISTTRANSLIT:;
#GENRE:Progressive Rock;
#CREDIT:GITADORA;
#BANNER:banner.png;
#BACKGROUND:bg.png;
#LYRICSPATH:;
#CDTITLE:;
#MUSIC:ITORINO.ogg;
#OFFSET:-0.000000;
#SAMPLESTART:57.245998;
#SAMPLELENGTH:12.070000;
#SELECTABLE:YES;
#BPMS:0.000000=173.987000
;
#STOPS:
;
#BGCHANGES:0.000=ITORINO.mkv=1.000=0=0=1=====,
99999=-nosongbg-=1.000=0=0=0 // don't automatically add -songbackground-
;
#KEYSOUNDS:;
#ATTACKS:;

//---------------dance-single - ----------------
#NOTES:
     dance-single:
     CND9:
     Challenge:
     11:
     0.873622,1.188126,0.436811,1.223071,1.118236,700.000000,650.000000,50.000000,140.000000,0.000000,9.000000,0.873622,1.188126,0.436811,1.223071,1.118236,700.000000,650.000000,50.000000,140.000000,0.000000,9.000000:
0000
0000
0000
1001
,
0102
0000
0000
0100
0000
0000
0103
0000
1020
0000
0000
0000
0231
0000
0000
0001
,
0000
0000
0301
0000
2010
0000
0000
0000
3001
0000
0001
0000
2010
0000
0000
0010
,
0000
0000
3010
0000
0201
0000
0000
0000
1320
0000
0000
1000
0000
0000
1030
0000
,
0001
0100
0010
0000
1000
0001
1000
0010
2100
0000
0000
0100
0000
0000
3100
0000
,
0021
0000
0000
0000
1230
0000
0000
1000
0000
0000
1300
0000
0012
0000
0000
0000
,
0103
0000
0100
0000
0012
0000
0000
0010
0000
0000
0013
0000
1200
0000
0000
0000
,
0321
0000
0000
0001
0000
0000
0031
0000
2100
0000
0000
0000
3010
1000
0010
0000
,
1000
0010
0100
0001
0000
0001
0000
0100
0000
0100
0010
0100
0010
1000
0100
1000
,
0002
0000
0000
0000
0000
0000
0000
0000
0000
0000
0000
0000
0000
0000
1000
0010
,
2003
0000
0000
3200
0000
0000
0302
0000
,
0000
0000
0000
2003
3020
0032
2003
3020
,
0032
0000
0000
0023
0000
0000
2030
0000
,
0000
0000
0000
0000
0000
0000
3001
0000
0001
0100
0001
0010
0001
0100
0001
0000
,
0020
0000
0000
0230
0000
0000
2300
0000
,
0000
0000
0000
0000
0000
0000
0000
0000
3001
1000
0001
1000
0001
1000
0001
1000
,
0102
0000
0000
0100
0000
0000
0103
0000
1020
0000
0000
0000
0231
0000
0000
0001
,
0000
0000
0301
0000
2010
0000
0000
0000
3001
0000
0001
0000
1000
0000
0010
0100
,
0020
0000
0000
0032
0000
0013
0100
0001
,
0020
0000
0000
0000
0000
0000
0130
0000
1000
0100
1000
0001
0100
0001
0010
0001
,
0200
0000
0000
0320
0000
0000
0032
0000
,
0000
0000
0000
0000
0000
0000
0013
0000
0001
0010
0001
0100
0010
1000
0010
0000
,
2000
0000
0000
0000
0000
0000
3001
1000
0200
0000
0000
0000
1000
0000
0001
0000
,
0000
0000
1000
0000
0001
0000
0000
0000
2300
0000
0001
0010
3001
0100
0001
1000
,
2100
0000
0000
0100
0000
0000
3100
0000
0021
0000
0000
0000
1230
0000
0000
1000
,
0000
0000
0000
1300
0000
0000
0012
0000
0000
0000
0000
0000
1003
0000
0010
0000
0100
0000
0002
0000
0000
0000
0000
0000
,
1003
0010
0100
0010
0100
0001
0010
0100
0010
0100
1000
0100
,
0010
0001
0010
0100
0010
0001
2000
0000
0001
0000
3020
0000
,
1130
0000
1010
0000
1001
0000
2100
0000
0001
3100
0010
1000
,
0200
0000
0000
0000
0000
0000
1300
0100
0001
1000
0010
0001
,
1000
0100
0010
0100
0010
0001
0100
0010
0100
0010
1000
0100
,
0002
0000
0203
0000
2300
0000
3020
0000
0032
0000
0023
0000
,
2030
0000
3010
0100
0010
1000
0200
0000
0000
0300
1000
0001
,
0020
0000
0031
0100
0010
0100
0001
0100
0010
1000
0010
0100
,
0001
1000
0100
0010
0100
1000
0001
0010
0100
0010
0001
1000
,
0200
0000
0302
0000
0203
0000
2300
0000
0001
0000
0010
3001
,
1000
0010
0100
0010
1000
0001
0010
0100
0010
0001
1000
0100
,
2000
0000
0010
0010
0000
0010
3001
0100
0010
1000
0100
0010
,
0002
0000
0000
0000
0103
0010
0200
0000
0000
0000
0310
1000
,
0200
0000
0000
1300
0100
1000
0010
1000
0001
0010
0001
1000
,
0200
0000
0000
0000
0000
0000
0000
0000
0000
0000
0000
0000
0000
0000
1300
0100
,
1000
0001
0100
0001
0100
0010
1000
0010
1000
0100
1000
0100
1000
0010
1000
0001
,
2000
0000
0000
0000
0001
0000
3010
0000
1000
0010
0100
0000
0020
0000
1000
0000
,
1030
0100
1000
0000
1000
0010
2000
0000
3010
1000
0010
0100
0010
0001
0010
0100
,
0020
0000
0000
0000
1030
0000
0010
0000
1000
0100
1000
0000
0002
0000
0100
0000
,
0103
0001
0100
0000
0001
0100
0001
0000
1000
0000
0001
1000
0001
1000
0001
1000
,
0020
0000
0000
0000
0100
0000
0130
0000
0001
0010
0001
0000
0020
0000
0001
0000
,
0031
0010
0001
0000
0001
0100
0001
0000
0020
0000
0230
0000
2300
0000
3100
0000
,
0000
0000
2001
0000
3000
1002
0000
0003
2001
0000
0000
0000
3000
0000
1000
0010
,
1000
0001
0010
0001
0010
0100
1000
0100
1000
0100
0010
0100
0001
0100
0010
0100
,
2000
0000
0000
0000
0010
0000
3010
0100
0002
0000
2003
0000
3200
0000
1000
0000
,
1300
0100
1000
0000
1000
0010
2000
0000
3001
0010
0001
0100
0001
1000
0010
1000
,
0200
0000
0000
0000
1300
0000
0001
0010
0002
0000
0203
0000
0302
0000
0013
0001
,
0010
0000
0100
0000
1000
0000
0100
1000
0100
1000
0010
1000
0001
0100
0001
0010
,
0002
0000
0000
0000
0103
0000
0100
0001
0100
0000
0001
0000
0002
0000
1000
0000
,
1003
0010
1000
0000
1000
0100
1000
0010
2000
0000
3200
0000
0302
0000
0203
0000
,
0300
0000
2100
0000
0000
3210
0000
0000
0321
0000
0000
0000
0000
0000
0031
1000
,
0001
0010
0100
1000
0001
0010
0100
1000
0001
0100
0001
1000
0010
0100
0010
1000
,
0200
0000
0000
0300
0200
2300
3200
0302
,
2003
0000
3020
0032
2003
0000
3002
0000
,
0203
0000
0000
0000
0000
0000
0310
0000
1000
0100
1000
0010
1000
0001
0010
0000
,
0001
1000
0001
1000
0002
0000
2003
0000
3020
0000
1030
0001
0100
0010
1000
0100
,
0020
0000
0000
0000
0000
0000
0000
0030
0010
0000
0000
0000
0200
0000
0000
1300
,
0200
0000
2300
0000
3200
0000
1300
0010
1000
0010
0100
0010
1000
0010
1000
0100
,
2000
3020
0032
0023
2030
3020
2030
3200
,
2300
0000
0000
0000
3002
0000
0203
0000
0320
0000
0000
0000
2030
0000
0000
3000
,
1010
0000
1010
0000
1000
0100
1000
0100
1100
0000
1100
0000
1000
0010
1000
0010
,
0101
0000
0101
0000
0001
0010
0001
0010
1001
0000
1001
0000
0001
0100
0001
0100
,
1010
0000
1010
0000
1000
0100
0010
0001
1100
0000
1100
0000
1000
0010
0100
0010
,
1010
0000
1010
0000
1000
0010
0100
0001
0101
0000
0101
0000
0001
0100
0001
0010
,
0001
0100
0001
0010
0001
0100
0001
0010
0001
0100
0001
0010
0001
0100
0001
0010
,
0002
0000
0000
0000
0023
0000
0000
0000
0031
0100
0001
1000
0001
2000
0000
3000
,
1000
0100
1000
0010
0100
0010
0100
0001
0010
0001
0100
0010
0100
0010
1000
0010
,
2000
0000
0000
0000
3002
0000
0000
0000
0013
0001
0010
0001
0010
0001
0010
0001
,
2000
0000
0000
0000
,
3001
0010
1000
0001
0100
1000
0001
0010
0001
1000
0010
1000
,
0200
0000
0000
0000
,
0000
0000
0000
0000
0000
0000
0000
0000
0000
0000
1000
0001
1000
0000
0000
0000
0000
0000
0000
0000
0000
0000
0000
0000
,
0000
0000
0000
0000
,
0000
0000
0000
0000
,
0300
0000
0000
0000
;

//---------------dance-double - ----------------
#NOTES:
     dance-double:
     CND9:
     Challenge:
     12:
     0.936023,1.153181,0.174724,1.223071,1.327905,750.000000,730.000000,20.000000,140.000000,0.000000,2.000000,0.936023,1.153181,0.174724,1.223071,1.327905,750.000000,730.000000,20.000000,140.000000,0.000000,2.000000:
  // measure 0
00000000
00000000
00000000
00000100
,  // measure 1
00020100
00000000
00000000
00030100
00010000
00000000
00000100
00000000
00000100
00001000
00000100
00000000
00010200
00000000
00000000
00010300
,  // measure 2
00000100
00000000
00010000
00000000
00010000
00001000
00010000
00000000
00001000
00000000
01000000
00000000
20100000
00000000
00000000
30100000
,  // measure 3
10000000
00000000
00100000
00000000
00100000
01000000
00100000
00000000
10200000
00000000
00000000
10300000
00100000
00000000
10000000
00000000
,  // measure 4
10000000
00010000
10000000
00000000
00001000
00100000
00001000
00010000
00020100
00000000
00000000
00030100
00001000
00000000
00000010
00000000
,  // measure 5
00000010
00000100
00000010
00000000
00000102
00000000
00000000
00000103
00000010
00000000
00001000
00000000
00001000
00000100
00001000
00000000
,  // measure 6
00000100
00010000
00001000
00100000
00201000
00000000
00000000
00301000
00010000
00000000
00001000
00000000
00001000
00100000
00010000
00000000
,  // measure 7
01002000
00000000
00000000
01003000
00010000
00000000
00100000
00000000
00100000
00010000
10000000
00000000
00010000
00100000
00001000
00010000
,  // measure 8
00000100
00001000
00000100
00000010
00000000
00000100
00000000
00001000
00000000
00000100
00010000
00001000
00100000
00010000
01000000
00001000
,  // measure 9
00020000
00000000
00000000
00000000
00000000
00000000
00000000
00000000
00000000
00000000
00000000
00000000
00030000
00000000
00000010
00000100
,  // measure 10
00000020
00000000
00000000
00000000
00002000
00000030
00003200
00000000
00000000
00000000
00000000
00000000
00020300
00000000
00000000
00000000
,  // measure 11
00000000
00000000
00000000
00000000
00030000
00000000
00001000
00100000
00010000
01000000
00010000
10000000
00100000
10000000
00010000
00000000
,  // measure 12
20000000
00000000
00000000
00000000
00020000
30000000
02030000
00000000
00000000
00000000
00000000
00000000
03002000
00000000
00000000
00000000
,  // measure 13
00000000
00000000
00000000
00000000
00000000
00000000
00013000
00001000
00010000
00000010
00001000
00000010
00010000
00001000
00100000
00000000
,  // measure 14
00002000
00000000
00000000
00023000
00000000
00000000
00230000
00000000
,  // measure 15
00000000
00000000
00000000
00000000
00000000
00000000
00000000
00000000
10300000
00100000
10000000
00100000
01000000
00010000
00100000
00001000
,  // measure 16
00021000
00000000
00000000
00031000
00010000
00000000
00000100
00000000
00000100
00001000
00000100
00000000
00012000
00000000
00000000
00013000
,  // measure 17
00001000
00000000
00100000
00000000
00100000
00010000
01000000
00000000
00021000
00000000
00001000
00030000
00010000
00000000
00000100
00001000
,  // measure 18
00000020
00000000
00000000
00000000
00000000
00000000
00002030
00000000
00000000
00000000
00003100
00001000
00000100
00010000
00000010
00000100
,  // measure 19
00002000
00000000
00000000
00000000
00000000
00000000
00013000
00001000
00100000
00010000
00100000
00001000
00010000
00000100
00001000
00000001
,  // measure 20
00002000
00000000
00000000
00000000
00000200
00003000
00020300
00000000
00000000
00000000
00000020
00030000
00000230
00000000
00000000
00000000
,  // measure 21
00001000
00000001
00001000
00000001
00001000
00000000
00000301
00000100
00000001
00001000
00000010
00001000
00000010
00010000
00001000
00010000
,  // measure 22
00002000
00000000
00000000
00000000
00000000
00000000
00013000
00000100
00002000
00000000
00000000
00000000
00010000
00000000
00000001
00000000
,  // measure 23
00000000
00000000
00010000
00000000
00000001
00000000
00003000
00000000
00200000
00000000
10300000
00010000
10000000
00100000
10000000
01000000
,  // measure 24
10020000
00000000
00000000
10030000
00010000
00000000
00100000
00000000
00100000
00001000
00100000
00000000
00002001
00000000
00000000
00003001
,  // measure 25
00001000
00000000
00000000
00000000
00000000
00000000
00000010
00000000
00000000
00000000
00000000
00000000
00000010
00000000
00000000
00001000
00000000
00000000
00000010
00000000
00000000
00000000
00000000
00000000
00000010
00000000
00000000
00000000
00010000
00000000
00000000
00000000
00000010
00000000
00000000
00000000
00010000
00000000
00000000
00000000
00001000
00000000
00000000
00000000
00010000
00000000
00000000
00000000
,  // measure 26
00000010
00001000
00010000
00001000
00000100
00001000
00010000
00001000
00000100
00001000
00000001
00001000
,  // measure 27
00000020
00000000
00002030
00000000
00003200
00000000
00002300
00000000
00000010
00000000
00003200
00000000
,  // measure 28
00020300
00000000
00230000
00000000
00302000
00000000
00003200
00000000
00001300
00000010
00001000
00000100
,  // measure 29
00020000
00000000
00000000
00000000
00000000
00000000
00031000
00100000
00010000
01000000
00001000
00100000
,  // measure 30
00001000
00010000
00100000
00010000
00001000
00010000
00001000
00100000
00001000
00010000
00000100
00001000
,  // measure 31
00020000
00000000
00230000
00000000
00302000
00000000
00003020
00000000
00002030
00000000
00023000
00000000
,  // measure 32
00030100
00001000
00000100
00000010
00000100
00001000
00000200
00000000
00000000
00000300
00010000
00001000
,  // measure 33
00100000
00010000
00100000
01000000
00100000
00010000
00200000
00000000
00000000
00301000
00010000
00000100
,  // measure 34
00010000
00001000
00010000
00000100
00010000
00001000
00100000
00010000
00001000
00010000
00100000
00001000
,  // measure 35
00200000
00000000
00302000
00000000
00023000
00000000
00230000
00000000
10000000
00000000
01300000
00010000
,  // measure 36
00200000
00000000
02300000
00000000
03200000
00000000
00302000
00000000
00013000
00001000
00010000
01000000
,  // measure 37
00020000
00000000
00001000
00031000
00000000
00001000
00010000
00001000
00010000
00000100
00001000
00000010
,  // measure 38
00000200
00000000
00000000
00000000
00000310
00000100
00002000
00000000
00000000
00000000
00103000
00010000
,  // measure 39
02000000
00000000
00000000
00000000
00000000
00000000
00000000
00000000
00000000
03000000
00000000
00000000
01000000
00000000
00000000
00000000
00100000
00000000
00000000
00000000
01000000
00000000
00000000
00000000
00010000
00000000
00000000
00000000
01000000
00000000
00000000
00000000
00001000
00000000
00000000
00000000
00010000
00000000
00000000
00000000
00000100
00000000
00000000
00000000
00001000
00000000
00000000
00000000
,  // measure 40
00000002
00000000
00000000
00000000
00000000
00000000
00000000
00000000
00000000
00000000
00000000
00000000
00000000
00000003
00000100
00000001
,  // measure 41
00001000
00000001
00010000
00000100
00010000
00001000
00010000
00001000
00100000
00010000
01000000
00010000
00100000
00001000
00010000
00000100
,  // measure 42
00002000
00000000
00000000
00000000
00003010
00000000
00000100
00000000
00000001
00000100
00000010
00000000
00002000
00000000
00000100
00000000
,  // measure 43
00000100
00000000
00000010
00000000
00000010
00000000
00003100
00010000
00001000
00100000
00001000
00010000
00001000
01000000
00001000
00010000
,  // measure 44
00002000
00000000
00000000
00000000
00203000
00000000
00302000
00000000
00013000
00000100
00001000
00000000
00000200
00000000
00001000
00000000
,  // measure 45
00001000
00000000
00010000
00000000
00000000
00000000
00010300
00000100
00010000
00000010
00000100
00000010
00001000
00000010
00010000
00000100
,  // measure 46
00002000
00000000
00000000
00000000
00000010
00003000
00002000
00000000
00003200
00002300
00003020
00000030
00000020
00000000
00000100
00000000
,  // measure 47
00000100
00000000
00000100
00000000
00001030
00000010
00001000
00000100
00002000
00000000
00003020
00000000
00020030
00000000
00032000
00000000
,  // measure 48
00003000
00000000
01002000
00000000
00000000
01000000
00000000
00000000
02000000
00000000
00000000
00000000
03003000
00000000
01000000
00010000
,  // measure 49
00100000
00001000
00010000
00000100
00001000
00000010
00010000
00001000
00100000
00010000
01000000
00010000
00100000
00001000
00010000
00000010
,  // measure 50
00002000
00000000
00000000
00000000
00003020
00000000
00000130
00000001
00002000
00000000
00003200
00000000
00020300
00000000
00000100
00000000
,  // measure 51
00000100
00000000
00001000
00000000
00001000
00030000
00010000
00001000
00010000
00000100
00100000
00001000
00100000
00001000
00010000
00000100
,  // measure 52
00020000
00000000
00000000
00000000
00032000
00000000
00103000
00010000
00200000
00000000
00302000
00000000
00023000
00000000
00000100
00000000
,  // measure 53
00000100
00000000
00001000
00000000
00001000
00000000
00030100
00010000
00001000
00010000
00000100
00001000
00000010
00000100
00000010
00001000
,  // measure 54
00000020
00000000
00000000
00000030
00000020
00000000
00001030
00000100
00002000
00000000
00003002
00000003
00000002
00000000
00000010
00000000
,  // measure 55
00000010
00000000
00000100
00000000
00001003
00000100
00000010
00000001
00000020
00000000
00000230
00000000
00000320
00000000
00000032
00000000
,  // measure 56
00002003
00000000
00000001
00000000
00000000
00000001
00000000
00000000
00000001
00000000
00000000
00000000
00003000
00000000
00000001
00000010
,  // measure 57
00000001
00000100
00000010
00001000
00000100
00010000
00000100
00010000
00002000
00000000
00000000
00100000
00000000
00000000
00103000
00000000
,  // measure 58
02010000
00000000
00000000
00000000
00010000
00000000
00000000
00000000
03200000
00000000
00320000
00000000
00030200
00000000
00020300
00030000
,  // measure 59
00012000
00000000
00213000
00001000
02310000
03000000
01200000
00300000
,  // measure 60
20100000
00000000
00000000
00000000
30100000
00000000
20000000
00000000
30100000
10000000
00010000
01000000
00010000
00100000
00001000
00000000
,  // measure 61
00010000
00001000
00010000
00001000
00020000
00000000
00031000
00100000
00010000
01000000
00010000
10000000
00010000
01000000
00100000
10000000
,  // measure 62
00002000
00000000
00100000
00000000
00100000
00000000
00100000
00003000
,  // measure 63
00002000
00003000
00002000
00000000
00013000
00000100
00001000
00000100
00010000
00000010
00001000
00000100
00010000
00001000
00100000
00010000
,  // measure 64
02000000
00000000
03100000
01000000
00200000
00300000
00200000
00000000
10300000
00100000
01000000
00100000
10000000
00010000
01000000
00100000
,  // measure 65
02000000
03020000
00230000
00320000
20030000
30020000
20030000
32000000
,  // measure 66
13000000
01000000
10000000
00100000
10000000
00010000
10000000
00100000
01000000
00010000
01000000
00001000
01000000
00010000
00100000
00010000
,  // measure 67
00100000
00001000
00010000
00000100
00001000
00000100
00010000
00001000
00100000
00001000
00010000
00000100
00001000
00000010
00000100
00000010
,  // measure 68
00001000
00000100
00000010
00000001
00000010
00000100
00001000
00000100
00001000
00000010
00000100
00000001
00000010
00000001
00000100
00000010
,  // measure 69
00001000
00000100
00010000
00001000
00100000
00010000
01000000
00010000
00100000
00001000
00010000
00000100
00001000
00000010
00001000
00000001
,  // measure 70
00001000
00000100
00001000
00000010
00001000
00000100
00001000
00000010
00001000
00000100
00001000
00000010
00001000
00000010
00001000
00000001
,  // measure 71
00000020
00000000
00000000
00000000
00000032
00000000
00000000
00000000
00000103
00000010
00001000
00000100
00010000
00000200
00000000
00000000
,  // measure 72
00010300
00000100
00010000
00001000
00100000
00010000
00100000
00001000
00010000
00000100
00001000
00000010
,  // measure 73
00000200
00000000
00000000
00000000
00000000
00000000
00000000
00000000
00000000
00000000
00000000
00000000
00000302
00000000
00000000
00000000
00000000
00000000
00000000
00000000
00000013
00000000
00000000
00000000
00000002
00000000
00000000
00000000
00000000
00000000
00001003
00000000
00000000
00000010
00000000
00000000
00010000
00000000
00000000
00000100
00000000
00000000
00001000
00000000
00000000
00000010
00000000
00000000
,  // measure 74
00002000
00000000
00000000
00000000
00000000
00000000
00003000
00000000
00000000
00000000
00000000
00000000
00001000
00000001
00001000
00000001
00001000
00000001
00001000
00000001
00001000
00000001
00001000
00000001
,  // measure 75
00001000
00000100
00010000
00001000
00010000
00100000
00010000
00001000
00000010
00001000
00010000
01000000
,  // measure 76
20000000
00000000
00000000
00000000
,  // measure 77
00000000
00000000
00000000
00000000
00000000
00000000
00000000
00000000
00000000
00000000
01000000
00010000
01000000
00000000
00000000
00000000
00000000
00000000
00000000
00000000
00000000
00000000
00000000
00000000
,  // measure 78
00000000
00000000
00000000
00000000
,  // measure 79
00000000
00000000
00000000
00000000
,  // measure 80
30000000
00000000
00000000
00000000
;
