#TITLE:もぺもぺ;
#SUBTITLE:;
#ARTIST:Unknown artist;
#TITLETRANSLIT:;
#SUBTITLETRANSLIT:;
#ARTISTTRANSLIT:;
#GENRE:;
#CREDIT:;
#BANNER:banner.png;
#BACKGROUND:maxresdefault-6.jpg;
#LYRICSPATH:;
#CDTITLE:;
#MUSIC:BOFU2017もぺもぺ.mp3;
#OFFSET:0.000000;
#SAMPLESTART:0.820000;
#SAMPLELENGTH:12.000000;
#SELECTABLE:YES;
#BPMS:0.000000=155.000000
,121.000000=122.000000
,132.000000=155.000000
,146.500000=122.000000
,233.000000=155.000000
;
#STOPS:
;
#BGCHANGES:0.000=videoplayback.mp4=1.000=0=0=0=StretchNoLoop====,
99999=-nosongbg-=1.000=0=0=0 // don't automatically add -songbackground-
;
#KEYSOUNDS:;
#ATTACKS:;

//---------------dance-single - ----------------
#NOTES:
     dance-single:
     :
     Hard:
     6:
     0.491002,0.720239,0.340121,0.000000,0.255091,384.000000,346.000000,38.000000,0.000000,0.000000,1.000000,0.491002,0.720239,0.340121,0.000000,0.255091,384.000000,346.000000,38.000000,0.000000,0.000000,1.000000:
  // measure 0
0000
0000
0000
0000
,  // measure 1
0000
0000
0000
0000
,  // measure 2
0000
0000
0000
0001
1000
0001
1000
0010
,  // measure 3
0100
0010
1000
0010
1000
0001
1000
0001
,  // measure 4
1000
0100
1000
0100
0001
0100
0010
0001
,  // measure 5
0010
0100
1000
0100
1001
1100
0000
0011
,  // measure 6
0000
0001
0010
0100
1000
0100
0010
0001
,  // measure 7
0010
0100
0001
0010
0100
1000
1000
0100
,  // measure 8
0010
0010
0001
0000
0000
0011
1001
0000
,  // measure 9
0110
0000
1000
0100
0010
0100
1100
0000
,  // measure 10
0001
0010
0100
0001
0100
0010
0100
0000
,  // measure 11
1000
0100
0000
0010
0000
0000
0001
0001
,  // measure 12
0000
0100
0100
0000
1000
1000
1000
0100
,  // measure 13
0001
0001
0010
0100
1000
0100
0010
0001
,  // measure 14
1001
1100
0011
0000
0101
0000
0000
0100
,  // measure 15
0100
0000
0010
0010
0000
1000
1000
1000
,  // measure 16
0010
0100
0010
0010
0001
0010
0100
0000
,  // measure 17
1000
0100
0000
0010
0001
0000
0000
1010
,  // measure 18
0101
0000
1100
0000
0011
0000
0010
0100
,  // measure 19
1000
0100
0010
0001
0010
0001
0010
0100
,  // measure 20
0000
0010
0100
1000
1000
0100
0000
0000
,  // measure 21
1100
0011
0000
0101
0000
0100
1000
0100
,  // measure 22
0001
0010
1000
0100
1000
0010
0001
0100
,  // measure 23
0010
0100
0000
0010
0001
0000
0010
0000
,  // measure 24
0000
1000
0100
1000
0010
1000
0010
0100
,  // measure 25
0001
0100
1000
0001
1000
0001
0010
0001
,  // measure 26
0100
0001
0100
1000
0010
1000
0100
0010
,  // measure 27
0100
1000
0010
1000
0010
0001
0010
0100
,  // measure 28
1000
0100
0010
0001
0010
0001
1001
1001
,  // measure 29
0000
0011
1100
0110
0000
0011
0000
0100
,  // measure 30
0010
0000
0000
0000
0000
4000
0000
3000
0040
0000
0000
0400
0030
0300
0000
0004
,  // measure 31
0000
0000
0000
0043
0000
0000
0000
0000
0430
0000
0000
0000
0000
4300
0000
0000
,  // measure 32
0000
0000
3400
0000
0000
0000
0300
0040
0000
0000
0000
0000
0034
0000
0000
0000
,  // measure 33
1013
1100
0000
0011
0100
1000
0010
1000
,  // measure 34
0010
0001
0010
0100
1000
0100
0010
0001
,  // measure 35
0010
0000
0100
0010
1000
0100
1000
0000
,  // measure 36
0000
0000
0100
0000
1000
0000
0100
0000
0010
0000
0000
0000
0000
4000
0000
0000
,  // measure 37
0000
0000
0000
0000
0000
0000
0000
0400
3000
0000
0000
0000
0000
0000
0000
0000
,  // measure 38
0000
0340
0000
0000
0000
0000
0000
0031
,  // measure 39
0000
0040
0000
0000
0000
0430
0000
0000
0000
0000
4300
0000
0000
0000
0000
3400
,  // measure 40
0000
0000
0000
0000
0340
0000
0000
0000
0000
0034
0000
0000
0000
0000
0043
0000
,  // measure 41
0000
0000
0000
0034
0000
0000
0000
0000
0403
0000
0000
0000
4000
0300
0000
0000
,  // measure 42
0000
0040
3000
0000
0000
0000
0034
0000
0000
0000
0000
0043
0000
0000
0000
4000
,  // measure 43
0030
0000
0000
0000
0000
3400
0000
0000
0000
0340
0000
0004
0030
0000
0000
0043
,  // measure 44
0000
0000
0000
0430
0000
0000
0000
4000
0300
0000
0000
0000
3400
0000
0000
0000
,  // measure 45
0000
0340
0000
0000
0000
0000
0034
0000
0000
0000
0000
0043
0000
0000
0000
0000
,  // measure 46
0000
0430
0000
0000
0000
4300
0000
0000
0000
0400
3000
0000
0000
0000
0000
0340
,  // measure 47
0000
0000
0000
0034
0000
0000
0000
0000
0043
0000
0000
0000
0000
0430
0000
0000
,  // measure 48
0000
0000
0000
0000
0300
0000
0000
4000
0000
0000
0000
3000
0100
0010
0000
0000
,  // measure 49
0000
0001
0010
0000
0100
1000
0000
0100
0000
0001
0010
0100
0000
0000
0010
0001
,  // measure 50
0010
0000
0000
0100
0000
1000
0000
0100
0000
0000
1000
0000
0000
0000
0000
1010
,  // measure 51
0000
1010
0000
0000
0101
0000
0101
0000
0000
0001
0010
0100
1000
0000
0100
0000
,  // measure 52
1100
1100
1100
0000
0000
1010
0000
0010
0000
0000
0001
0000
0010
0000
0000
0100
,  // measure 53
0000
1000
0000
0000
0000
0000
4000
0000
3400
0000
0340
0000
0000
0000
0030
0004
,  // measure 54
0000
0000
0000
0000
0043
0000
0000
0000
0030
0400
0000
0000
0000
0000
4300
0000
,  // measure 55
0000
0000
0000
3400
0000
0000
0000
0000
0340
0000
0000
0000
0030
0004
0000
0000
,  // measure 56
0000
0000
0043
0000
0000
0000
0430
0000
0000
0000
0000
4300
0000
0000
0000
0000
,  // measure 57
3004
0000
0000
0000
0000
0043
0000
0000
0000
0000
0430
0000
0000
0000
0000
0000
,  // measure 58
0000
0000
0000
1300
0000
0000
1000
0000
0100
0000
0010
0000
0001
0000
0000
0000
,  // measure 59
0010
0100
1000
0010
0000
0001
0010
0100
,  // measure 60
1000
0100
0010
0001
0000
0010
0100
0000
,  // measure 61
0010
0000
1000
0100
0000
0100
0010
0001
,  // measure 62
0000
0010
0100
1000
0010
0100
0001
0100
,  // measure 63
0000
0010
0001
0010
0100
1000
0000
0000
,  // measure 64
0000
1100
1100
0011
0000
0000
0000
0000
;
