#TITLE:太鼓の勝鬨;
#SUBTITLE:;
#ARTIST:Unknown artist;
#TITLETRANSLIT:;
#SUBTITLETRANSLIT:;
#ARTISTTRANSLIT:;
#GENRE:;
#CREDIT:;
#BANNER:banner.png;
#BACKGROUND:Horikawa.Raiko.full.1770230.jpg;
#LYRICSPATH:;
#CDTITLE:;
#MUSIC:東方Traditional 太鼓の勝鬨 O-Life Japan.mp3;
#OFFSET:0.000000;
#SAMPLESTART:92.631622;
#SAMPLELENGTH:12.000000;
#SELECTABLE:YES;
#BPMS:0.000000=100.000000
,37.500000=166.000000
;
#STOPS:
;
#BGCHANGES:;
#KEYSOUNDS:;
#ATTACKS:;

//---------------dance-single - ----------------
#NOTES:
     dance-single:
     :
     Hard:
     7:
     0.455731,0.651099,0.326430,0.494592,0.022257,645.000000,579.000000,66.000000,100.000000,0.000000,3.000000,0.455731,0.651099,0.326430,0.494592,0.022257,645.000000,579.000000,66.000000,100.000000,0.000000,3.000000:
  // measure 0
0000
0000
0000
2002
0000
0000
0000
0000
0000
0000
0000
0000
3003
0220
0000
0000
,  // measure 1
0000
0000
0000
0000
0000
0000
0330
2002
0000
0000
0000
0000
0000
0000
3003
0000
,  // measure 2
2020
0000
0000
0000
0000
0000
0000
0030
3000
0202
0000
0000
0000
0000
0000
0000
,  // measure 3
0000
0303
0000
2200
0000
0000
0000
0000
0000
0000
3300
0000
0022
0000
0000
0000
,  // measure 4
0000
0000
0000
0000
0033
0000
2200
0000
0000
0000
0000
0000
0000
3300
2020
0000
,  // measure 5
0000
0000
0000
0000
0000
0000
3030
0022
0000
0000
0000
0000
0000
0000
0000
0033
,  // measure 6
0202
0000
0000
0000
0303
2200
0000
0000
,  // measure 7
0000
3300
0000
2020
0000
0000
0000
0000
0000
0000
0000
3030
0022
0000
0000
0000
,  // measure 8
0000
0000
0000
0000
0033
2020
0000
0000
0000
0000
0000
0000
0000
0000
0000
3232
,  // measure 9
0000
0000
0000
0303
0000
1000
0000
0001
,  // measure 10
0001
1000
1000
0001
0001
1000
1000
0001
,  // measure 11
0001
1000
1000
0001
0001
1000
0001
1000
,  // measure 12
0000
0001
1000
0001
1000
0001
1000
0001
,  // measure 13
1000
0001
1000
0000
1001
0001
1000
0001
,  // measure 14
1000
0001
1000
0001
1000
0001
1000
0001
,  // measure 15
1000
0001
1000
0001
1000
0001
1000
0001
,  // measure 16
1000
0001
1000
0001
1000
0001
1000
0001
,  // measure 17
1000
0001
1000
1001
0000
1000
0001
1000
,  // measure 18
0001
1000
0001
1000
0001
1000
0001
1000
,  // measure 19
0001
1000
0001
1000
0001
1000
0001
1000
,  // measure 20
0001
1000
0001
1000
0001
1000
0001
1000
,  // measure 21
0001
1001
0000
1000
0001
0000
1000
0001
,  // measure 22
1000
0001
0000
1000
0001
0000
1000
0001
,  // measure 23
1000
1001
0000
1000
0001
0000
1000
0001
,  // measure 24
1000
0001
0000
1000
0001
1000
0001
0000
,  // measure 25
1001
0000
1000
0001
0000
1000
0001
1000
,  // measure 26
0001
0000
1001
0000
1000
0001
1000
0001
,  // measure 27
1000
0000
0001
1000
0001
1000
0001
0000
,  // measure 28
1000
0001
1000
0000
0001
1000
0000
1001
,  // measure 29
0000
1000
0001
0000
1000
0001
1000
0001
,  // measure 30
1000
0000
0001
1000
0001
1000
0001
1000
,  // measure 31
0000
1000
0001
1000
0001
1000
0001
0000
,  // measure 32
1000
0001
0000
1000
0001
0000
1001
0000
,  // measure 33
1000
0001
0000
0001
1000
0001
0000
1000
,  // measure 34
0001
1000
0000
0001
1000
0001
0000
0001
,  // measure 35
1000
0001
0000
0001
1000
0001
0000
0001
,  // measure 36
1000
0001
0000
1000
0001
1001
1001
0000
,  // measure 37
1000
0000
0001
1000
0001
0000
1000
0100
,  // measure 38
1000
0000
1000
0010
1000
0001
0010
0001
,  // measure 39
0000
0001
0100
0001
0000
0100
1000
0100
,  // measure 40
0000
1000
0001
1000
1010
1000
0010
1000
,  // measure 41
0000
0010
0100
0011
0011
0000
0010
0001
,  // measure 42
0010
0100
0001
0101
0101
0000
1000
0100
,  // measure 43
1000
0100
1100
1100
0000
1010
0000
0010
,  // measure 44
1000
0010
1010
1010
0000
1000
1000
1000
,  // measure 45
1000
1000
1000
1000
1000
1000
1000
1000
,  // measure 46
1000
1000
1000
1000
1000
1000
1000
1000
,  // measure 47
1000
1000
1000
1000
1000
1000
1000
0000
,  // measure 48
2000
0020
0000
3032
,  // measure 49
0000
0200
0003
2300
,  // measure 50
0000
3020
0000
0230
,  // measure 51
0000
0002
0300
0000
0000
0000
0023
0000
,  // measure 52
0000
0230
0000
0000
0000
2300
0000
0000
,  // measure 53
0000
0020
0000
0000
3200
0030
0000
0000
,  // measure 54
0302
0000
0023
0000
,  // measure 55
0230
0000
2300
0000
,  // measure 56
3200
0000
0301
0010
0000
0100
1000
0001
,  // measure 57
0000
1000
0001
0000
1000
0001
1000
0001
,  // measure 58
0000
1000
0001
0000
1000
0001
1000
0001
,  // measure 59
0000
1000
0001
0000
1000
0001
1001
0000
,  // measure 60
1001
1000
0000
0001
1000
0001
1001
0000
,  // measure 61
1000
0001
1000
0001
1000
0001
1000
0000
,  // measure 62
0001
1000
0001
1000
0001
1001
1001
1000
,  // measure 63
0001
0000
1000
0001
1000
1001
2000
0000
,  // measure 64
0000
0020
0000
0000
0030
3020
0000
0000
,  // measure 65
0002
0030
0000
0000
0000
0203
0000
0000
,  // measure 66
0000
2300
0000
0000
0000
0020
0000
3000
,  // measure 67
0230
0000
0302
0000
,  // measure 68
0020
0003
0000
0000
0230
0000
0000
0000
,  // measure 69
0320
0000
0000
0032
0000
0000
0000
0020
,  // measure 70
0003
0000
0000
0230
0000
0000
0000
2300
,  // measure 71
0000
0000
0000
3200
0000
0000
0320
0000
,  // measure 72
0030
0001
1000
0000
0001
1000
0001
0000
,  // measure 73
1000
0001
1000
1001
0000
0001
1000
0001
,  // measure 74
1000
1001
1001
0001
1000
0001
0000
1000
,  // measure 75
0001
1000
1001
0001
1000
0001
0000
1000
,  // measure 76
0001
1000
1001
1000
0010
1000
0010
1000
,  // measure 77
0000
0010
1000
0100
1000
0000
1000
0100
,  // measure 78
1000
0000
0001
0100
0001
0000
0100
0001
,  // measure 79
0100
0001
0010
0000
0000
0000
0000
0000
,  // measure 80
0000
0000
0000
0000
,  // measure 81
1001
0000
0000
0000
,  // measure 82
0000
0000
0000
0000
,  // measure 83
1001
0000
0000
0000
,  // measure 84
0000
0000
0000
0000
0000
0000
0000
1001
,  // measure 85
0000
0000
0000
0000
,  // measure 86
0000
0000
0000
1001
,  // measure 87
0000
0000
0000
0000
,  // measure 88
0000
0000
0000
1001
,  // measure 89
0000
0000
0000
0000
,  // measure 90
0000
0000
0000
0000
0000
1001
0000
0000
,  // measure 91
0000
0000
0000
0000
,  // measure 92
0000
0000
1001
0000
,  // measure 93
0000
0000
0000
0000
,  // measure 94
0000
0000
0000
0000
1001
0000
0000
1000
,  // measure 95
0001
1000
0001
1000
0001
1000
0001
1000
,  // measure 96
1001
0001
1000
0001
1000
0001
1000
0001
,  // measure 97
1000
0001
1000
0001
1000
0001
1000
0001
,  // measure 98
1000
0001
1000
1001
0001
1000
0001
1000
,  // measure 99
0001
1000
0001
0001
1000
1000
1000
1000
,  // measure 100
1000
0001
0001
0001
0001
0001
1000
1000
,  // measure 101
1000
1000
0001
0001
0001
1000
1000
1000
,  // measure 102
1000
0001
0001
2000
0000
0000
3200
0000
,  // measure 103
0000
0000
0320
0000
0000
0032
0000
0020
,  // measure 104
0003
0230
0000
0000
0000
2300
0000
3200
,  // measure 105
0000
0320
0000
0000
0000
0230
0000
0000
,  // measure 106
0000
2300
0000
0000
0000
3002
0000
0000
,  // measure 107
2003
0000
0000
0000
0020
3000
2030
0000
,  // measure 108
3200
0000
0302
0023
,  // measure 109
0032
0000
0000
0000
0103
0000
1100
1000
,  // measure 110
0000
1000
0000
0010
0001
0002
0000
0000
,  // measure 111
0003
0100
0000
1000
0100
2000
0000
0000
,  // measure 112
3000
0010
0200
0000
0301
0010
0100
1000
,  // measure 113
0100
0020
0000
0032
0000
0000
0000
0023
,  // measure 114
0000
0130
0000
0100
2000
0000
0000
3000
,  // measure 115
0002
0000
0023
0130
0001
0002
0000
0013
,  // measure 116
0000
0100
0000
1000
0100
0010
0001
0010
,  // measure 117
0200
0320
0000
2030
,  // measure 118
3100
0000
0010
0001
0001
1000
0000
0001
,  // measure 119
1000
0001
1000
0001
0000
1010
0000
1000
,  // measure 120
0001
1000
0001
1000
0000
0011
0000
1001
,  // measure 121
0001
1000
0001
1000
0000
1001
1000
0100
,  // measure 122
1000
0100
1000
0000
1001
0000
0001
0100
,  // measure 123
0001
0100
0001
0000
1001
0000
1000
0010
,  // measure 124
1000
0010
1000
0000
1001
0000
0001
0010
,  // measure 125
0100
1000
0000
1001
0000
0000
0000
0000
;
