#VERSION:0.83;
#TITLE:津軽雪;
#SUBTITLE:;
#ARTIST:罠師 VS 安室;
#TITLETRANSLIT:Tsugaru setsu;
#SUBTITLETRANSLIT:;
#ARTISTTRANSLIT:;
#GENRE:;
#ORIGIN:;
#CREDIT:;
#BANNER:Tsugaru setsu.png;
#BACKGROUND:Tsugaru setsu-bg.png;
#PREVIEWVID:;
#JACKET:Tsugaru setsu-jacket.png;
#CDIMAGE:;
#DISCIMAGE:;
#LYRICSPATH:;
#CDTITLE:;
#MUSIC:Tsugaru setsu.mp3;
#OFFSET:-2.568000;
#SAMPLESTART:86.587997;
#SAMPLELENGTH:12.000000;
#SELECTABLE:YES;
#BPMS:0.000=160.000;
#STOPS:;
#DELAYS:;
#WARPS:;
#TIMESIGNATURES:0.000=4=4;
#TICKCOUNTS:0.000=4;
#COMBOS:0.000=1;
#SPEEDS:0.000=1.000=0.000=0;
#SCROLLS:0.000=1.000;
#FAKES:;
#LABELS:0.000=Song Start;
#BGCHANGES:;
#KEYSOUNDS:;
#ATTACKS:
;

//---------------dance-single - ----------------
#NOTEDATA:;
#CHARTNAME:;
#STEPSTYPE:dance-single;
#DESCRIPTION:;
#CHARTSTYLE:;
#DIFFICULTY:Hard;
#METER:90;
#RADARVALUES:0.521322,0.648011,0.214662,0.155445,0.251673,493.000000,464.000000,29.000000,21.000000,0.000000,0.000000,0.000000,0.000000,0.000000,0.521322,0.648011,0.214662,0.155445,0.251673,493.000000,464.000000,29.000000,21.000000,0.000000,0.000000,0.000000,0.000000,0.000000;
#CREDIT:;
#NOTES:
0000
0000
0000
0000
,
0000
0000
0000
0000
,
0000
0000
0000
0000
,
0000
0000
0000
0000
0000
0000
0000
0100
,
2002
0000
0000
3003
0000
0000
0000
0010
,
2002
0000
0000
3003
0000
0000
0000
0100
,
2002
0000
3003
0010
2002
0000
0000
3003
,
0000
0000
0000
0000
,
0000
0001
0100
0010
0000
0000
0000
0010
,
0000
0010
0100
0001
0000
0000
0000
1000
,
0000
1000
0100
0010
0000
0000
0000
0010
,
0000
0010
0100
1000
0000
0000
0000
0001
,
0000
0001
0100
0010
0000
0000
0000
0010
,
0000
0010
0100
0001
0000
0000
0000
1000
,
0000
1000
0100
0010
0000
0000
0000
0010
,
0000
0010
0100
1000
0000
0000
0000
0001
,
0100
0000
0010
0000
1000
0000
0001
0100
0000
0001
0000
0000
0000
0000
0000
0000
,
1000
0000
0100
0000
0010
0000
0100
1000
0000
0010
0000
0000
0000
0000
0000
0000
,
0100
0000
0010
0000
1000
0000
0001
0010
0000
0001
0000
0000
0000
0000
0000
0000
,
1000
0000
0001
0000
0100
0000
0001
0010
0000
0001
0000
0000
0000
0000
0000
0000
,
1001
0000
0001
0000
1000
0000
0010
0100
0000
0001
0000
0000
0000
0000
0000
0000
,
1001
0000
1000
0000
0001
0000
0010
0100
0000
0010
0000
0000
0000
0000
0000
0000
,
0000
0001
0010
0000
0000
0010
0100
0000
0000
0100
1000
0000
0010
0000
0100
0000
,
0002
0000
0000
0000
,
1003
0010
0100
0001
0101
0000
0011
0000
,
0101
0000
0011
0000
0101
0000
0001
0001
,
1000
0100
0010
0100
1100
0000
1010
0000
,
1100
0000
1010
0000
1100
0000
0010
0001
,
1000
0100
0001
0100
1100
0000
0101
0000
,
1100
0000
0101
0000
1100
0000
1000
0010
,
1000
0000
0010
0000
0001
0000
0010
0000
1010
0000
0000
0000
0011
0000
0000
1000
,
0010
0000
0000
0100
0001
0000
0000
1000
0010
0000
0000
0100
0001
0000
0000
0000
,
1000
0001
0100
0010
1000
0001
0100
0010
,
1000
0100
0010
0100
1000
0001
0100
0100
,
0000
0010
0100
0001
1000
0100
0001
0100
,
1000
0010
0100
1000
0100
0010
1000
1000
,
0000
0010
0100
0001
1000
0010
1000
0001
,
0010
1000
0010
0001
0100
1000
0100
0100
,
0000
0010
0100
0001
0010
0100
1000
0010
,
0001
0100
0010
0001
0100
0010
1000
0001
,
1000
0010
0000
0100
0002
0000
0000
0000
0000
0000
0000
0000
0000
0000
0000
0000
,
0000
0000
0000
0000
0000
0000
1003
0100
0010
0000
0000
0000
0100
0000
0000
0000
,
1000
0000
0000
0010
0000
0000
2000
0000
0000
0000
0000
0000
0000
0000
3001
0100
,
0002
0000
0000
0000
0000
0000
0103
0010
0200
0000
0000
0000
0000
0000
0000
0000
,
0310
1000
0000
1000
0020
0000
0000
0000
0000
0000
0000
0000
0000
0000
0000
0000
,
0000
0000
0000
0000
0000
0000
0130
0010
1000
0000
0000
0000
0001
0000
0000
0000
,
0020
0000
0000
0000
0000
0000
0000
0000
0000
0000
0000
0000
0000
0000
0130
0010
,
0002
0000
0000
0000
0000
0000
0013
0100
2000
0000
0000
0000
0000
3001
0010
0100
,
0010
0000
0001
0000
0100
0000
0010
0100
0000
0010
0100
0000
0010
0000
1000
0000
,
0001
0000
0010
0000
0001
0000
1000
0100
0000
1000
0100
0000
1000
0000
0001
0000
,
0100
0000
0010
0000
1000
0000
0001
0010
0000
0001
0010
0000
0001
0000
1000
0000
,
0010
0000
0100
0000
0001
0000
1000
0100
0000
1000
0100
0000
1000
0000
0001
0000
,
0100
0010
1000
0001
0010
1000
0010
0001
,
0100
0010
1000
0001
1000
0100
0001
0100
,
0010
0000
0000
0100
0010
0000
0000
0010
0100
0000
0000
0100
0010
0000
0000
0010
,
0100
0000
0000
0100
1000
0000
0000
1000
0010
0000
0000
0010
0100
0000
0001
0000
,
1000
1000
0001
0100
0100
0001
1000
1000
,
0001
0000
0100
0000
0100
0000
0001
0000
1001
0000
1001
0000
1000
0001
1000
0000
,
0001
0001
0010
0001
0001
1000
0001
0001
,
0010
0000
0001
0000
0001
0000
0010
0000
0110
0000
0110
0000
0100
1000
0100
0010
,
0001
0000
0100
0000
0010
0000
1000
0000
0001
0000
0010
0000
0100
0000
0000
1000
,
0100
0000
0010
0000
0001
0000
0010
0000
0100
0000
1000
0000
0001
0000
0000
1000
,
0001
0000
0100
0010
0100
0000
0001
1000
0001
0000
0100
0010
0100
0000
0001
1000
,
0002
0000
0000
0000
2000
0000
0000
3003
,
1000
0010
0010
1000
0010
0010
1000
0010
,
0010
1000
0010
0010
1000
0010
0100
0001
,
0010
0100
0100
0010
0100
0100
0010
0100
,
0100
0010
0100
0100
0010
0001
1000
0001
,
0012
0000
0010
0000
,
0100
0000
1000
0000
,
0103
0000
0000
0010
,
0100
0000
0001
0000
,
2010
0000
0000
0000
0000
0000
3100
0010
,
0100
0010
0100
0010
0100
0010
0100
0010
,
0000
0000
0100
0000
1000
0000
0010
0100
0000
0010
0000
0000
0000
0000
0000
0000
,
0100
0000
0001
0000
1000
0000
0010
0100
0000
0001
0000
0000
0000
0000
0000
0000
,
0010
0000
0001
0000
0100
0000
0010
1000
0000
0010
0000
0000
0000
0000
0000
0000
,
0100
0000
0001
0000
1000
0000
0100
0010
0000
0100
0000
0000
0000
0000
0000
0000
,
0010
0000
0001
0000
0100
0000
0010
1000
0000
0010
0000
0000
0000
0000
0000
0000
,
0100
0000
0000
0001
0100
0000
0000
0010
1000
0000
0100
0000
0010
0000
0001
0000
,
0000
1000
1000
0001
0000
0000
0000
0001
,
0000
0001
0001
1000
0000
0000
0000
1000
,
0000
1000
1000
0001
0000
0000
0000
0001
,
0000
0001
0001
1000
0000
0000
0000
0000
;

//---------------dance-single - ----------------
#NOTEDATA:;
#CHARTNAME:;
#STEPSTYPE:dance-single;
#DESCRIPTION:;
#CHARTSTYLE:;
#DIFFICULTY:Challenge;
#METER:115;
#RADARVALUES:0.687342,0.907688,0.111032,0.325694,0.692100,650.000000,635.000000,15.000000,44.000000,22.000000,0.000000,5.000000,0.000000,0.000000,0.687342,0.907688,0.111032,0.325694,0.692100,650.000000,635.000000,15.000000,44.000000,22.000000,0.000000,5.000000,0.000000,0.000000;
#CREDIT:;
#OFFSET:-2.568000;
#BPMS:0.000000=160.000000
,226.000000=320.000000
,229.000000=160.000000
,235.000000=320.000000
,238.000000=160.000000
;
#STOPS:27.500000=1.500000
,226.000000=0.093750
,226.500000=0.093750
,235.000000=0.093750
,235.500000=0.093750
,319.500000=0.562500
,322.000000=0.562500
,324.500000=0.562500
;
#DELAYS:;
#WARPS:;
#TIMESIGNATURES:0.000000=4=4
;
#TICKCOUNTS:0.000000=4
;
#COMBOS:0.000000=1
;
#SPEEDS:0.000000=1.000000=0.000000=0
;
#SCROLLS:0.000000=1.000000
;
#FAKES:;
#LABELS:0.000000=Song Start
;
#NOTES:
// measure 0
0000
0000
0000
0000
,  // measure 1
0000
0000
0000
0000
,  // measure 2
0000
0000
0000
0000
,  // measure 3
0000
0000
0000
0000
0000
0000
0000
0100
,  // measure 4
0001
1000
0001
1000
0001
0010
0100
1000
0000
0000
0000
0000
0000
0000
0010
0000
,  // measure 5
1000
0001
1000
0001
1000
0100
0010
0001
0000
0000
0000
0000
0000
0000
0100
0000
,  // measure 6
0001
1000
0001
1000
0010
1000
0001
1000
0001
0010
0100
0010
0001
1000
0100
0000
,  // measure 7
0000
1000
1000
M001
0000
0000
0000
010M
,  // measure 8
0000
0010
0010
10M0
0000
0000
0000
M010
,  // measure 9
0000
0100
0100
0M01
0000
0000
0000
001M
,  // measure 10
0000
0100
0100
1M00
0000
0000
0000
M100
,  // measure 11
0000
0010
0010
00M1
0000
0000
0000
100M
,  // measure 12
0000
0001
0001
010M
0000
0000
0000
0M10
,  // measure 13
0000
1000
1000
M010
0000
0000
0000
01M0
,  // measure 14
0000
0010
0010
10M0
0000
0000
0000
0000
,  // measure 15
1000
0000
0001
0000
0010
0000
0001
0100
0000
0010
0000
0100
0001
0000
1000
0000
,  // measure 16
0001
0000
0100
0000
0001
0000
0100
0010
0000
1000
0000
0010
1000
0000
0100
0000
,  // measure 17
0010
0000
0001
0000
0010
0000
0001
0100
0000
0010
0000
0100
0001
0000
1000
0000
,  // measure 18
0100
0000
1000
0000
0010
0000
0100
0001
0000
0010
0000
0100
0010
0000
0001
0000
,  // measure 19
1001
0000
0001
0000
1000
0000
0010
1000
0000
0010
0000
1000
0010
0000
1000
0000
,  // measure 20
1001
0000
0001
0000
0010
0000
0001
0010
0000
0001
0000
0010
0001
0000
1000
0000
,  // measure 21
0000
0001
0100
0010
0000
0100
0010
1000
0000
0010
1000
0100
0010
0001
1000
0040
,  // measure 22
0400
0000
0000
0330
,  // measure 23
1001
0000
0001
0100
0001
0000
0100
0010
0100
0000
0010
1000
0010
0000
1000
0100
,  // measure 24
1000
0000
0100
0010
0100
0000
0010
0001
0010
0000
0001
1000
0001
0100
0001
0000
,  // measure 25
0000
1000
0100
0000
0010
0000
0001
0100
0001
0000
0100
0010
0100
0000
0010
1000
,  // measure 26
0010
0000
1000
0100
1000
0000
0001
0010
0001
0000
0100
0001
0100
0001
0010
0000
,  // measure 27
0000
0100
0010
0000
0001
0000
1000
0010
1000
0000
0001
0100
0001
0000
0100
0010
,  // measure 28
0100
0000
0010
1000
0010
0000
1000
0100
1000
0000
0100
0010
0100
0010
0001
0000
,  // measure 29
0000
1000
0010
0000
0100
0000
0001
0010
0001
0000
0010
0100
0010
0000
0100
1000
,  // measure 30
01M0
0000
1000
0001
10M0
0000
0010
1000
0M10
0000
0001
0100
00M1
0000
0010
0000
,  // measure 31
0001
0100
1000
0100
0010
1000
0010
0001
,  // measure 32
0010
0000
1000
0000
0100
0000
0001
0000
0100
0000
0010
0000
0001
1000
0001
1000
,  // measure 33
0001
1000
0100
1000
0100
0010
1000
0010
,  // measure 34
0001
0000
0010
0000
1000
0000
0010
0000
0100
0000
0010
0000
0001
0010
0001
0010
,  // measure 35
0001
0100
0001
0100
1000
0100
0010
1000
,  // measure 36
0001
0000
0010
0000
1000
0000
0010
0000
0001
0000
0100
0000
0010
0100
0010
0100
,  // measure 37
0010
0100
0010
1000
0001
0010
1000
0010
,  // measure 38
0001
0000
0100
0000
1000
0000
0100
0000
0010
1000
0000
0100
0001
0000
1000
0000
,  // measure 39
0020
2030
0000
3002
0023
0000
0000
0000
0000
0000
0000
0000
0000
0000
0000
0000
,  // measure 40
0000
0000
0000
0000
0000
0000
0230
0320
0032
0000
0000
0000
0023
0000
0000
0000
,  // measure 41
0230
0000
0000
0320
0000
0000
0032
0000
0000
0000
0000
0000
0000
0000
0023
0230
,  // measure 42
2300
0000
0000
0000
0000
3000
2000
3200
0320
0000
0000
0000
0000
0000
0000
0000
,  // measure 43
0032
2003
0000
3002
0203
0000
0000
0000
0000
0000
0000
0000
0000
0000
0000
0000
,  // measure 44
0000
0000
0000
0000
0000
0000
0320
0230
0302
0000
0000
0000
2003
0000
0000
0000
,  // measure 45
3002
0000
0000
0000
0000
0000
0000
0000
0000
0000
0000
0000
0000
0000
0203
0302
,  // measure 46
0023
0000
0000
0000
0000
0000
0230
2300
3020
0000
0000
0000
0000
0000
0230
0302
,  // measure 47
1003
0100
1000
0000
0100
0000
0010
0001
0000
0001
0010
0000
0001
0000
0100
0000
,  // measure 48
0010
0100
0010
0000
1000
0000
0001
0010
0000
0010
0001
0000
1000
0000
0001
0000
,  // measure 49
0100
0010
0100
0000
0010
0000
1000
0010
0000
0010
1000
0000
0100
0000
0010
0000
,  // measure 50
0100
0010
0100
0000
0010
0000
0001
1000
0000
1000
0001
0000
0100
0000
0001
0000
,  // measure 51
0010
0100
1000
0010
0100
0000
0010
1000
0001
0000
0010
0100
0010
0001
0100
0010
,  // measure 52
1000
0000
0100
0010
0001
0100
0001
0000
0100
0010
1000
0001
0010
0100
0010
0001
,  // measure 53
1000
0010
1000
0000
0010
0000
0100
0001
0100
0000
0001
0010
0001
0000
0010
0100
,  // measure 54
0010
0000
0100
1000
0100
0000
1000
0010
1000
0000
0010
0100
0001
1000
0100
0010
,  // measure 55
0200
0000
1300
0100
0010
0000
0200
0000
1300
0010
0100
0000
0002
0000
1003
0001
,  // measure 56
0010
0000
0200
0000
0310
0001
0100
0000
0110
0000
0110
0000
0100
0000
0010
0000
,  // measure 57
0100
0000
0010
0000
0200
0000
0310
1000
0001
0000
0020
0000
0130
0010
0001
0000
,  // measure 58
2000
0000
3010
1000
0100
0000
0020
0000
0130
0010
0001
0000
1001
0000
1001
0000
,  // measure 59
1000
0000
0001
0000
1000
0000
0001
0000
1000
0000
0001
0100
0001
0000
0010
0000
,  // measure 60
0100
1000
0100
0000
1000
0000
0010
0100
0010
0000
1000
0000
0001
0100
0001
0000
,  // measure 61
0010
0100
1000
0100
0010
0100
1000
0001
0100
0010
0100
0001
0000
0001
1000
0010
,  // measure 62
0000
0010
1000
0001
0010
0000
0100
0010
0004
4000
0000
0000
0000
0000
0000
0000
,  // measure 63
0000
0000
0000
0000
0000
0000
3003
0000
1001
0000
0001
0100
0010
0000
1001
0000
,  // measure 64
1000
0010
0100
0000
1001
0000
0001
0100
0010
0000
1001
0000
1000
0001
0100
0000
,  // measure 65
0001
0100
0010
1000
0001
0010
0100
1000
1001
0000
1000
0001
0010
0000
1001
0000
,  // measure 66
0001
1000
0010
0000
1001
0000
1000
0001
0010
0000
1001
0000
1000
0001
0010
0000
,  // measure 67
0100
0010
0001
1000
0010
0100
0001
0010
0002
0000
0000
0000
0000
0000
0000
1000
,  // measure 68
1000
0000
0100
0000
,  // measure 69
0010
0000
0100
0000
,  // measure 70
0000
1000
0100
0000
,  // measure 71
0010
0000
2003
0000
,  // measure 72
0000
0004
0000
0000
,  // measure 73
0000
0000
0000
0000
0000
0000
0000
3003
1000
0000
0001
0000
0100
0000
0010
1000
,  // measure 74
0000
0010
0000
0100
0001
0000
0010
0000
0100
0000
0010
0000
0001
0000
1000
0010
,  // measure 75
0000
0100
0000
0001
1000
0000
0100
0000
1000
0000
0010
0000
0001
0000
0010
0100
,  // measure 76
0000
0001
0000
0010
0100
0000
0010
0000
0001
0000
1000
0000
0100
0000
1000
0010
,  // measure 77
0000
0001
0000
0010
0100
0000
0001
0000
1000
0000
0100
0000
0001
0000
0100
0010
,  // measure 78
0000
0001
0000
0100
0010
0000
1000
0000
0001
0000
0100
0000
1000
0000
0100
0010
,  // measure 79
0000
1000
0000
0001
0010
0000
0100
0000
0010
0000
0001
0000
0001
0000
1000
M000
,  // measure 80
1000
0000
0000
0000
1000
0000
1000
0000
0001
000M
0001
0000
0000
0000
0001
0000
,  // measure 81
0001
0000
1000
M000
1000
0000
0000
0000
1000
0000
1000
0000
0001
0000
0000
0000
;

//---------------dance-single - ----------------
#NOTEDATA:;
#CHARTNAME:;
#STEPSTYPE:dance-single;
#DESCRIPTION:;
#CHARTSTYLE:;
#DIFFICULTY:Medium;
#METER:60;
#RADARVALUES:0.348958,0.432008,0.096228,0.170249,0.048114,330.000000,317.000000,13.000000,23.000000,0.000000,0.000000,0.000000,0.000000,0.000000,0.348958,0.432008,0.096228,0.170249,0.048114,330.000000,317.000000,13.000000,23.000000,0.000000,0.000000,0.000000,0.000000,0.000000;
#CREDIT:;
#NOTES:
0000
0000
0000
0000
,
0000
0000
0000
0000
,
0000
0000
0000
0000
,
0000
0000
0000
0000
0000
0000
0000
1000
,
0002
0000
0000
0000
0003
0000
0000
1000
,
0002
0000
0000
0000
0003
0000
0000
1000
,
0002
0203
0320
2030
,
3000
0000
0000
0000
,
0000
0001
1000
0010
0000
0000
0000
0010
,
0000
0010
1000
0001
0000
0000
0000
1000
,
0000
1000
0001
0010
0000
0000
0000
0010
,
0000
0010
0001
1000
0000
0000
0000
0001
,
0000
0001
0100
0010
0000
0000
0000
0010
,
0000
0010
0100
0001
0000
0000
0000
0001
,
0000
0001
1000
0010
0000
0000
0000
0010
,
0000
0010
1000
0001
0000
0000
0000
0000
,
1000
0000
0001
0000
0100
0001
0000
0000
,
0010
0000
0100
0000
0010
0001
0000
0000
,
0100
0000
0010
0000
1000
0001
0000
0000
,
0010
0000
0100
0000
0010
0001
0000
0000
,
1010
0000
0010
0000
0100
0001
0000
0000
,
1001
0000
0001
0000
1000
0100
0000
0000
,
0000
0010
0000
0001
0000
1000
0010
0100
,
0002
0000
0000
0000
,
1003
0100
1000
0010
,
0100
0000
0001
0000
0010
0000
0100
0010
,
0001
0010
0001
0100
,
0010
0000
1000
0000
0010
0000
0100
0010
,
1000
0001
0010
0001
,
0100
0000
0001
0000
1000
0000
0100
0010
,
0001
0010
0100
1000
,
1100
0011
1100
0011
,
0001
0100
0010
1000
,
0001
0000
0010
0000
0100
0000
0010
0001
,
1000
0100
1000
0010
,
0100
0000
0001
0000
1000
0000
0001
0010
,
1000
0010
0100
0010
,
0001
0000
0100
0000
1000
0000
0100
0010
,
1000
0000
0010
0100
0001
0000
0010
0100
,
1000
0100
0010
0001
,
1000
0001
0200
0000
0000
0000
0000
0000
,
0000
0000
0000
0310
2000
0000
3002
0000
,
1003
0000
0000
0001
0000
0000
0200
0000
0000
0000
0000
0000
0000
0000
0301
0000
,
0020
0000
0000
0130
2000
0000
0000
0000
,
3100
1000
0020
0000
0000
0000
0000
0000
,
0000
0000
0000
0130
0002
0000
2003
0000
,
0002
0000
0000
0000
0000
0000
3003
0001
,
0200
0000
0000
0310
2000
0000
0000
3010
,
0100
0000
0000
0000
0010
0000
0000
1000
0000
0000
0010
0000
0100
0000
0000
0000
,
0001
0000
0000
0000
1000
0000
0000
0100
0000
0000
1000
0000
0010
0000
0000
0000
,
0100
0000
0000
0000
0001
0000
0000
0010
0000
0000
0100
0000
0010
0000
0000
0000
,
0100
0000
0000
0000
1000
0000
0000
0100
0000
0000
1000
0000
0010
0000
0000
0000
,
0100
0010
0100
0000
0010
0000
1000
0000
,
0001
0100
0001
0000
0100
0000
0010
0000
,
1000
0010
1000
0000
0001
0100
0001
0000
,
0010
0001
0010
0000
0100
1000
0100
0000
,
1001
1000
0010
0100
,
0001
0000
1000
0000
0010
0010
1000
0001
,
0010
0001
1000
0100
,
1000
0000
0010
0000
0100
0100
1000
0100
,
0001
0000
0000
0000
0010
0000
0000
0000
0100
0000
0000
0000
1000
0000
0000
0001
,
1000
0000
0000
0000
0010
0000
0000
0000
1000
0000
0000
0000
0100
0000
0000
0010
,
0001
1100
0001
1010
,
1002
0000
0010
0000
,
1003
0000
0000
0000
0001
0000
0000
0100
0001
0000
0000
0000
0010
0000
0000
0100
,
1000
0000
0000
0000
0010
0000
0000
0100
0001
0000
0000
0000
1000
0000
0000
0001
,
0010
0000
0000
0000
0001
0000
0000
0000
1000
0000
0000
0001
0100
0000
0000
0100
,
0010
0000
1000
0000
0010
0100
0001
1000
,
2001
0000
0001
0000
,
0001
0000
0001
0000
,
3001
0000
0000
0010
,
0100
0000
0010
0000
,
2200
0000
0000
0000
,
0000
0000
0000
3300
,
1000
0100
1000
0010
,
0100
0001
0010
0100
,
1001
1000
0001
0100
,
0001
0010
0001
1000
,
0100
1000
0010
0100
,
0001
1000
0010
0100
,
0000
0001
1000
0010
0000
0000
0000
0010
,
0000
0010
1000
0001
0000
0000
0000
0001
,
0000
0001
1000
0010
0000
0000
0000
0010
,
0000
0010
1000
0001
0000
0000
0000
0000
;

//---------------dance-single - ----------------
#NOTEDATA:;
#CHARTNAME:;
#STEPSTYPE:dance-single;
#DESCRIPTION:;
#CHARTSTYLE:;
#DIFFICULTY:Easy;
#METER:45;
#RADARVALUES:0.268592,0.493723,0.185054,0.111032,0.000000,254.000000,229.000000,25.000000,15.000000,0.000000,0.000000,0.000000,0.000000,0.000000,0.268592,0.493723,0.185054,0.111032,0.000000,254.000000,229.000000,25.000000,15.000000,0.000000,0.000000,0.000000,0.000000,0.000000;
#CREDIT:;
#NOTES:
0000
0000
0000
0000
,
0000
0000
0000
0000
,
0000
0000
0000
0000
,
0000
0000
0000
0000
,
1001
0000
0000
0000
,
1001
0000
0000
0000
,
1001
0000
1001
0000
,
0000
0000
0000
0000
,
0000
0001
0000
0100
0000
0000
0000
0010
,
0000
1000
0000
0010
0000
0000
0000
0100
,
0000
0001
0000
0100
0000
0000
0000
0010
,
0000
1000
0000
0010
0000
0000
0000
1000
,
0000
0100
0000
0010
0000
0000
0000
0010
,
0000
0001
0000
0100
0000
0000
0000
0010
,
0000
0100
0000
0001
0000
0000
0000
0010
,
0000
0100
0000
1000
0000
0000
0000
0000
,
0100
1000
0010
0000
,
0100
0001
1000
0000
,
0001
0010
0100
0000
,
0010
0001
1000
0000
,
1001
0001
1000
0000
,
1001
1000
0001
0000
,
0100
0100
0100
0100
,
2002
0000
0000
3003
,
0001
1000
0010
1000
,
0010
0000
0100
0000
0001
0000
1000
0100
,
0000
0100
1000
0000
0100
0000
1000
0000
,
0010
0000
0100
0000
0001
0000
0010
0001
,
0000
0001
0010
0000
0001
0000
0100
0000
,
0001
0000
1000
0000
0100
0000
0010
0100
,
0000
0100
0010
0000
0001
0000
0100
0000
,
1001
0110
1001
0110
,
1000
0010
0100
0001
,
0010
0100
0010
0001
,
1000
0001
0100
0001
,
1000
0010
0100
0001
,
1001
0001
1000
0100
,
1001
0001
1000
0010
,
1001
0010
1001
0100
,
1001
0110
1001
0110
,
2002
0000
0000
0000
,
3003
0000
0001
1000
,
0200
0000
0000
0000
,
1300
0000
0010
0000
,
0100
0002
0000
0000
,
0000
0003
1000
0001
,
0200
0000
0000
0000
,
0320
0000
2030
0000
,
3001
0010
0100
0100
,
0010
0001
1000
1000
,
0100
1000
0010
0010
,
0100
0001
1000
1000
,
0001
0010
0001
0100
,
0001
1000
0100
1000
,
0010
0010
0100
0100
,
0010
0100
0001
1000
,
1001
0001
1000
0010
,
1000
0000
0001
0000
0100
0010
0100
0010
,
0100
0010
1000
0001
,
0010
0000
0100
0000
1000
0100
1000
0100
,
1000
0000
0000
0100
,
1000
0000
0000
1000
,
0010
0000
0000
0100
,
0001
0000
1000
0000
,
1001
0000
0001
0000
,
0100
0000
0010
0000
,
1000
0000
0000
0010
,
0100
0000
0000
0000
,
1001
0000
1000
0000
,
0010
0000
0100
0000
,
0010
0000
0000
1000
,
0100
0000
1000
0000
,
1002
0000
0000
0020
,
0000
0000
0000
0033
,
0100
1000
0010
0000
,
0100
0001
1000
0000
,
1001
0001
1000
0000
,
0010
0100
0001
0000
,
1000
0010
0100
0000
,
0001
0010
0100
0000
,
0020
0000
0000
0030
0000
0000
0000
0002
,
0000
0000
0000
0003
0000
0000
0000
2000
,
0000
0000
0000
3000
0000
0000
0000
0020
,
0000
0000
0000
0030
0000
0000
0000
0000
;

//---------------dance-single - ----------------
#NOTEDATA:;
#CHARTNAME:;
#STEPSTYPE:dance-single;
#DESCRIPTION:;
#CHARTSTYLE:;
#DIFFICULTY:Beginner;
#METER:20;
#RADARVALUES:0.135353,0.245381,0.096228,0.000000,0.000000,128.000000,115.000000,13.000000,0.000000,0.000000,0.000000,0.000000,0.000000,0.000000,0.135353,0.245381,0.096228,0.000000,0.000000,128.000000,115.000000,13.000000,0.000000,0.000000,0.000000,0.000000,0.000000,0.000000;
#CREDIT:;
#NOTES:
0000
0000
0000
0000
,
0000
0000
0000
0000
,
0000
0000
0000
0000
,
0000
0000
0000
0000
,
1001
0000
0000
0000
,
0110
0000
0000
0000
,
1001
0000
0110
0000
,
0000
0000
0000
0000
,
1000
0000
0000
0000
,
0001
0000
0000
0000
,
0100
0000
0000
0000
,
0010
0000
0000
0000
,
1000
0000
0000
0000
,
0010
0000
0000
0000
,
0100
0000
0000
0000
,
0001
0000
1000
0000
,
1001
0000
0000
0000
,
0001
0000
0000
0000
,
0100
0000
0000
0000
,
0010
0000
0000
0000
,
1001
0000
0000
0000
,
1001
0000
0000
0000
,
0010
0000
0010
0000
,
0100
0000
0000
0000
,
1001
0000
0001
0000
,
0001
0000
0000
1000
,
0001
0000
0100
0000
,
0010
0000
0000
0100
,
0001
0000
1000
0000
,
0100
0000
0000
0010
,
0100
0000
0010
0000
,
0001
0001
1000
1000
,
0001
0000
0100
0000
,
0001
0000
1000
0000
,
0001
0000
0010
0000
,
0001
0000
1000
0000
,
0100
0000
1000
0000
,
0010
0000
0100
0000
,
0001
0000
1000
0000
,
0001
1000
0001
1000
,
0110
0000
0000
0000
,
0000
0000
0000
0000
,
0000
0000
0000
0000
,
0000
0000
0000
0000
,
0010
0000
0000
0000
,
0000
0000
0100
0100
,
0100
0000
0000
0000
,
0001
0000
1000
0000
,
0110
0000
0000
0000
,
0010
0000
0000
0000
,
1000
0000
0000
0000
,
0001
0000
0000
0000
,
0010
0000
0000
0000
,
0001
0000
0000
0000
,
1000
0000
0000
0000
,
0001
0000
0000
0000
,
0100
0000
0000
0000
,
0010
0000
1000
1000
,
1000
0000
0000
0001
,
0000
0000
0010
0010
,
0010
0000
0000
0001
,
0001
0000
0000
1000
,
1000
0000
0000
0010
,
0100
0000
0000
0000
,
0010
0000
1000
0000
,
0001
0000
0010
0000
,
0001
0000
0000
1000
,
1000
0000
0000
0000
,
0110
0000
0100
0000
,
0010
0000
1000
0000
,
0001
0000
0000
0010
,
0010
0000
0001
0000
,
1001
0000
0000
0000
,
0000
0000
0000
0000
,
1000
0000
0000
0000
,
0001
0000
0000
0000
,
0110
0000
0000
0000
,
1000
0000
0000
0000
,
0001
0000
0000
0000
,
0010
0000
0001
0000
,
1000
0000
0000
0000
0000
0000
0000
0001
,
0000
0000
0000
0000
0000
0000
0000
1000
,
0000
0000
0000
0000
0000
0000
0000
0001
;
