#TITLE:美しい作画のアニメ;
#SUBTITLE:;
#ARTIST:Unknown artist;
#TITLETRANSLIT:;
#SUBTITLETRANSLIT:;
#ARTISTTRANSLIT:;
#GENRE:;
#CREDIT:;
#BANNER:banner.png;
#BACKGROUND:maxresdefault-6.jpg;
#LYRICSPATH:;
#CDTITLE:;
#MUSIC:【MAD】美しい作画のアニメ【モノノ怪】.mp3;
#OFFSET:0.000000;
#SAMPLESTART:99.971581;
#SAMPLELENGTH:12.000000;
#SELECTABLE:YES;
#BPMS:0.000000=177.000000
,89.000000=166.000000
,123.000000=177.000000
,140.000000=155.000000
,202.000000=177.000000
,272.000000=155.000000
,320.000000=122.000000
,326.000000=177.000000
,440.000000=122.000000
,452.000000=133.000000
,463.000000=177.000000
;
#STOPS:
;
#BGCHANGES:0.000=maxresdefault-6.jpg=1.000=0=0=0=StretchNoLoop====,
0.021=%E3%80%90MAD%E3%80%91%E7%BE%8E%E3%81%97%E3%81%84%E4%BD%9C%E7%94%BB%E3%81%AE%E3%82%A2%E3%83%8B%E3%83%A1%E3%80%90%E3%83%A2%E3%83%8E%E3%83%8E%E6%80%AA%E3%80%91Beautiful+Animation.mp4=1.000=0=0=1=====,
99999=-nosongbg-=1.000=0=0=0 // don't automatically add -songbackground-
;
#KEYSOUNDS:;
#ATTACKS:;

//---------------dance-single - ----------------
#NOTES:
     dance-single:
     :
     Hard:
     8:
     0.594116,0.885711,0.197556,0.278605,0.075983,821.000000,782.000000,39.000000,55.000000,0.000000,0.000000,0.594116,0.885711,0.197556,0.278605,0.075983,821.000000,782.000000,39.000000,55.000000,0.000000,0.000000:
  // measure 0
0000
0000
0000
0000
1000
0100
0010
0000
,  // measure 1
0001
0010
1000
0100
0000
0010
0001
0010
,  // measure 2
0100
1000
0100
0001
0010
0100
0010
0100
,  // measure 3
0010
0100
1000
0010
1000
0000
1000
0010
,  // measure 4
1000
0010
1000
0010
0001
1000
0000
1000
,  // measure 5
0010
0001
0100
1000
0100
0001
0010
0100
,  // measure 6
0000
1000
0010
0100
1000
0001
0010
0001
,  // measure 7
0000
0100
0010
0100
0010
0100
0010
1000
,  // measure 8
0100
1000
0010
1000
0001
1000
0001
0000
,  // measure 9
0000
1100
1100
1100
0000
1010
1010
1010
,  // measure 10
0000
0000
0000
0001
0010
0100
0010
0001
,  // measure 11
0100
0000
1000
0100
0010
0000
0001
0010
,  // measure 12
0100
1000
0100
0010
0001
0010
0100
1000
,  // measure 13
0100
0010
0001
0000
0010
0100
1000
0000
,  // measure 14
0100
0010
0001
0000
0000
0000
0010
0100
,  // measure 15
0010
0100
0010
0100
1000
0000
0100
0010
,  // measure 16
0001
0000
0010
0001
0100
0010
0100
0010
,  // measure 17
0100
1000
0100
0010
0001
0010
0000
0100
,  // measure 18
0000
1000
0200
0000
0000
0000
0000
0000
,  // measure 19
0000
0000
0000
1000
0000
1000
1000
1000
,  // measure 20
0000
1000
0000
0000
1000
0000
1000
0000
,  // measure 21
1000
0000
1000
1000
1000
1000
1000
1000
,  // measure 22
0000
1000
0000
1300
1000
0020
0000
0030
,  // measure 23
0001
0100
1000
0010
0001
0010
0100
0010
,  // measure 24
0001
0010
0000
0100
0010
0200
0000
0300
,  // measure 25
1000
0010
0001
1000
0100
0010
0001
0010
,  // measure 26
0100
0010
0001
0010
0000
1000
1000
0000
,  // measure 27
0000
0100
0010
0001
0100
0010
0001
0010
,  // measure 28
0100
1000
0100
0010
0000
0100
1000
0100
,  // measure 29
0000
0010
0001
0010
0001
0100
0010
0100
,  // measure 30
1000
0100
0010
0002
0000
0000
0000
0000
,  // measure 31
0003
1000
0010
0001
0100
0000
0010
0000
,  // measure 32
0000
0100
1000
0010
0000
0001
0010
0000
,  // measure 33
0100
0000
0010
0100
0000
1000
0100
0010
,  // measure 34
0000
0001
0000
0010
0100
0010
0000
0100
,  // measure 35
0000
1000
0100
0020
0030
0001
0010
0100
,  // measure 36
0001
0010
0100
0010
0100
1000
0100
0000
,  // measure 37
1000
0010
0010
0000
1000
0100
0010
0001
,  // measure 38
0100
0010
0001
0100
1000
0100
0100
0000
,  // measure 39
0010
0002
0000
0003
0010
1000
0100
0001
,  // measure 40
0010
0100
0010
0010
0100
0020
0030
1000
,  // measure 41
0100
0010
0000
0001
0010
0100
0001
0100
,  // measure 42
0010
0010
0100
0100
2000
0000
0000
3000
,  // measure 43
1001
0000
1001
0000
1000
0010
0001
0100
,  // measure 44
0100
0000
0010
0100
0020
0000
0000
0030
,  // measure 45
1000
0000
1000
1000
0100
0010
0001
0010
,  // measure 46
0100
0100
0000
0010
0020
0000
0030
0000
,  // measure 47
1001
1001
0000
1100
0010
0001
0010
0100
,  // measure 48
0000
0000
0010
0000
0100
0000
0020
0000
0000
0000
0030
0000
1000
0001
1000
0000
,  // measure 49
0000
0000
0000
0000
1000
0010
1000
0000
0000
0000
0000
0000
1100
0000
0020
0000
,  // measure 50
0000
0000
0000
0030
0000
1001
1001
1001
,  // measure 51
0000
1010
1010
1010
0000
0000
1000
0100
,  // measure 52
1000
0010
0010
0100
0001
0000
0010
0001
,  // measure 53
0010
1000
0100
0010
0100
1000
0100
0010
,  // measure 54
0001
0010
0100
0010
0001
0010
0100
0000
,  // measure 55
1000
0100
0010
0000
0001
0010
0100
0000
,  // measure 56
0000
1000
0010
0100
0001
0010
0001
0010
,  // measure 57
0100
0000
0010
0100
0010
1000
0100
0010
,  // measure 58
0001
0010
0100
0010
0000
0001
0010
0100
,  // measure 59
1000
0200
0000
0000
0000
0300
1000
0100
,  // measure 60
0010
0000
0001
0010
0000
0100
0000
0000
,  // measure 61
0010
0100
1000
0100
0000
0010
0001
0000
,  // measure 62
0000
0010
0100
0010
0001
0010
0000
0100
,  // measure 63
0000
1000
0010
0100
0010
0001
0010
0000
,  // measure 64
0100
0000
0010
0100
1000
0100
0000
0010
,  // measure 65
0001
0000
0000
0010
0100
0010
0100
0000
,  // measure 66
1000
0200
0000
0300
0010
0001
0010
0100
,  // measure 67
0000
0010
0001
0020
0000
0230
0000
0000
,  // measure 68
0320
0030
1000
0100
0020
0000
0030
0001
,  // measure 69
0010
1000
0100
0010
0001
0100
0010
0001
,  // measure 70
0000
0010
0100
1000
0000
0100
0010
0001
,  // measure 71
0010
0100
0001
0010
0100
0010
0100
1000
,  // measure 72
0100
0000
1000
0020
0000
1030
0010
0001
,  // measure 73
0010
0001
0010
0100
0001
0100
0002
0000
,  // measure 74
0103
1000
0020
0000
1030
0100
0001
0010
,  // measure 75
0100
1000
0010
0001
0010
0100
0020
0000
,  // measure 76
0000
0030
1100
1100
0000
0000
1000
0100
,  // measure 77
0010
0021
0000
0031
0010
0200
0000
0000
,  // measure 78
0300
1100
0000
1100
1000
0100
0010
0001
,  // measure 79
0010
0100
0010
0000
0100
2000
3000
0000
,  // measure 80
0000
1000
0000
0100
0000
0010
0000
0001
0000
0010
0100
0000
1000
0000
0100
0000
,  // measure 81
0010
0000
0001
0000
0020
0000
0030
0000
1000
0001
1000
0000
0000
0000
0000
0000
,  // measure 82
1000
0001
1000
0000
0000
0000
0000
0000
0000
0000
1000
0000
2001
0000
0000
0000
,  // measure 83
0000
0000
3000
0000
0000
1010
1010
1010
,  // measure 84
0000
0101
0101
0202
0000
0303
0000
1000
,  // measure 85
0100
0010
0001
0100
0010
0000
0000
0100
,  // measure 86
1000
0100
0001
0010
0100
0010
0100
1000
,  // measure 87
0100
0010
0001
0100
0010
0100
0010
0000
,  // measure 88
1000
0001
1000
0000
1000
0010
1000
0000
,  // measure 89
0000
0000
1000
0100
0010
0100
0010
0001
,  // measure 90
0010
0000
0010
0100
0010
0001
0100
1000
,  // measure 91
0100
0010
0001
0010
0000
0100
0010
0100
,  // measure 92
0010
0200
0000
0000
0000
0300
0001
1000
,  // measure 93
0001
0100
2000
0000
3010
0001
0000
0000
,  // measure 94
0100
0010
0100
0010
0000
1000
0100
0000
,  // measure 95
0010
0001
0010
0100
0010
0000
0001
0010
,  // measure 96
0100
0010
1000
0100
0010
0001
0000
0010
,  // measure 97
0100
0000
1000
0100
0010
0002
0000
0013
,  // measure 98
0000
0002
0003
0010
0100
0010
0100
0000
,  // measure 99
1000
0000
0100
0000
1000
0010
1000
0010
,  // measure 100
0000
1000
0010
0000
0101
0000
0101
0000
,  // measure 101
0101
0000
0000
0000
0000
0000
1000
0100
,  // measure 102
0010
0001
0010
0000
0100
0010
0000
0100
,  // measure 103
1000
0100
0010
0000
0100
1000
0000
0000
,  // measure 104
0100
0010
0001
0010
0100
0000
0010
0000
,  // measure 105
0001
0010
0100
1000
0000
0100
0000
0010
,  // measure 106
0000
0001
0010
0100
0010
0000
0002
0000
,  // measure 107
0103
0000
1000
0100
0010
0100
0000
0000
,  // measure 108
1000
0001
1000
0000
0000
0000
0000
0000
0000
0000
1000
0001
1000
0000
0000
0000
,  // measure 109
0000
0000
0001
1000
0001
0000
0000
0000
0000
0000
0000
0000
0000
0000
0000
0000
,  // measure 110
0000
0000
1000
0100
0010
0000
0000
0000
0001
0010
0200
0000
0000
0000
0300
1000
,  // measure 111
0000
0100
0010
0001
0010
0001
0000
0020
0000
0000
0000
0000
0000
0000
0000
0000
,  // measure 112
0000
0000
0000
0000
0000
0000
0000
0000
0000
2030
0000
0000
0000
0000
0000
3000
,  // measure 113
0000
0000
1000
0000
0100
0000
0010
0000
0001
0000
0010
0000
0200
0000
0000
0300
,  // measure 114
0000
0000
1000
0100
1000
0100
1000
0100
1000
0100
0020
0000
0000
0030
1000
0010
,  // measure 115
0000
0001
0010
0100
1000
0100
0010
0001
0010
0100
0000
0000
0000
0000
1001
0000
,  // measure 116
1001
1001
1001
1001
1002
0000
1003
0010
,  // measure 117
0002
0000
0103
1000
0200
0000
0000
0300
,  // measure 118
0010
0001
0010
1000
0100
0200
0000
0000
,  // measure 119
0000
0000
0000
0000
,  // measure 120
0000
2300
0000
3020
,  // measure 121
0000
0030
0001
0100
2000
3000
0100
0010
,  // measure 122
0002
0000
0003
0010
0100
1000
0100
0010
,  // measure 123
0001
0020
0000
0031
0100
1000
0100
0010
,  // measure 124
0001
0010
0100
0010
0100
0010
0100
1000
,  // measure 125
0100
0010
0002
0000
0000
0000
0000
0003
,  // measure 126
1000
0010
0001
0100
0000
0010
0100
0000
,  // measure 127
0000
1000
0100
0010
0001
0000
0010
0100
,  // measure 128
0000
0000
1000
0100
0010
0100
1000
0000
,  // measure 129
0200
0000
0300
0010
0001
0010
0100
0010
,  // measure 130
0000
0001
0000
0010
0100
1000
0100
0000
,  // measure 131
0010
0200
0000
0300
0001
1000
0001
1000
,  // measure 132
0000
0010
0002
0000
0000
0103
1000
0100
,  // measure 133
0010
0000
0001
0200
0000
2300
0000
3100
,  // measure 134
0000
0020
0000
0000
0030
0000
0000
0000
;
