#VERSION:0.83;
#TITLE:彷徨いの言葉は天に導かれ;
#SUBTITLE:;
#ARTIST:Unknown artist;
#TITLETRANSLIT:;
#SUBTITLETRANSLIT:;
#ARTISTTRANSLIT:;
#GENRE:;
#ORIGIN:;
#CREDIT:;
#BANNER:banner.png;
#BACKGROUND:Shiki.Eiki.full.1453637.jpg;
#PREVIEWVID:;
#JACKET:;
#CDIMAGE:;
#DISCIMAGE:;
#LYRICSPATH:;
#CDTITLE:;
#MUSIC:Phantasmagoria Trues Area 5 U Boss Theme - 彷徨いの言葉は天に導かれ.mp3;
#OFFSET:0.000000;
#SAMPLESTART:99.971581;
#SAMPLELENGTH:12.000000;
#SELECTABLE:YES;
#BPMS:0.000=155.000;
#STOPS:;
#DELAYS:;
#WARPS:;
#TIMESIGNATURES:0.000=4=4;
#TICKCOUNTS:0.000=4;
#COMBOS:0.000=1;
#SPEEDS:0.000=1.000=0.000=0;
#SCROLLS:0.000=1.000;
#FAKES:;
#LABELS:0.000=Song Start;
#BGCHANGES:;
#KEYSOUNDS:;
#ATTACKS:
;

//---------------dance-single - ----------------
#NOTEDATA:;
#CHARTNAME:;
#STEPSTYPE:dance-single;
#DESCRIPTION:;
#CHARTSTYLE:;
#DIFFICULTY:Hard;
#METER:6;
#RADARVALUES:0.480236,0.572092,0.281156,0.990160,0.000000,550.000000,504.000000,46.000000,162.000000,0.000000,3.000000,0.000000,0.000000,0.000000,0.480236,0.572092,0.281156,0.990160,0.000000,550.000000,504.000000,46.000000,162.000000,0.000000,3.000000,0.000000,0.000000,0.000000;
#CREDIT:;
#NOTES:
// measure 0
0000
0000
0000
0000
0000
0000
0000
2000
,  // measure 1
0000
0000
0000
0000
0000
0000
3100
0010
,  // measure 2
0001
0010
0100
1000
0100
0010
0001
0010
,  // measure 3
1000
0000
1000
0100
0010
0001
0010
0100
,  // measure 4
1000
0100
0010
0001
0010
0100
1000
0100
,  // measure 5
0010
0001
0010
0100
1000
0100
0010
0001
,  // measure 6
0010
0100
1000
0100
0010
0001
0010
1000
,  // measure 7
0100
0010
0001
0010
0100
1000
0100
0010
,  // measure 8
0001
0010
0100
0010
0001
0100
1000
0100
,  // measure 9
0010
0100
1000
0100
0010
0001
0010
0100
,  // measure 10
0010
0001
0010
1000
0100
0010
0100
1000
,  // measure 11
0100
0010
0001
0010
0100
0001
0010
0100
,  // measure 12
1000
0100
0010
0100
1000
0010
0001
0010
,  // measure 13
0100
0010
0001
0010
1000
0100
0010
0000
,  // measure 14
0220
0000
0330
0002
0000
2023
0000
3030
,  // measure 15
1100
0000
0011
0101
0000
1100
0000
0011
,  // measure 16
0000
0202
0000
0303
1010
0000
1100
0011
,  // measure 17
0000
0002
0000
2203
0000
3300
2020
0000
,  // measure 18
3030
0011
0000
1100
0101
0000
2200
3300
,  // measure 19
2010
0000
3022
0000
0033
0101
0000
1100
,  // measure 20
1010
1000
0100
0020
,  // measure 21
0000
0032
0000
0013
0200
0000
2300
0000
,  // measure 22
0200
3000
0000
0320
0000
0032
0000
0013
,  // measure 23
0000
0200
0000
2300
0000
3200
0000
0320
,  // measure 24
0000
0230
0000
0000
0310
0200
0000
2300
,  // measure 25
0000
3200
0000
0300
0002
0000
0023
0000
,  // measure 26
0130
0000
0010
0000
1000
0100
0010
0000
,  // measure 27
0001
0000
0010
0100
1000
0100
0010
0000
,  // measure 28
0001
0010
0100
0000
0020
0000
0030
1000
,  // measure 29
0010
0001
0000
0010
0000
0100
0010
0100
,  // measure 30
0000
2000
0000
3100
0010
0001
0010
0100
,  // measure 31
0000
0010
0100
1000
0000
0200
0000
0300
,  // measure 32
1000
0010
0001
0000
0010
0100
0000
0010
,  // measure 33
0100
2000
0000
0000
3001
0010
1000
0000
,  // measure 34
0100
0010
0000
0001
0010
0000
0200
0000
,  // measure 35
1300
0100
0010
0001
0010
0000
0100
0000
,  // measure 36
0110
0000
1001
0000
0000
1000
0001
0100
,  // measure 37
0000
1000
0100
0000
0001
0010
0000
1010
,  // measure 38
0000
0000
1000
0100
0001
0010
0000
0100
,  // measure 39
0000
0110
0110
0000
0000
1001
0000
0000
,  // measure 40
1001
0000
1001
0000
1000
0100
0010
0000
,  // measure 41
0000
0001
0010
0100
1000
0000
0000
0000
,  // measure 42
0000
1001
0000
1001
0000
0000
0110
0000
,  // measure 43
0110
0000
0110
0000
0100
1000
0010
0000
,  // measure 44
0000
0000
0001
0010
0100
0000
0000
0100
,  // measure 45
0000
1001
1001
0110
,  // measure 46
0000
0110
0000
0110
0000
1000
0010
0100
,  // measure 47
0001
0000
0000
0001
0100
1000
0000
0000
,  // measure 48
0000
0000
0000
1001
1001
0000
0000
0110
,  // measure 49
0000
0000
0110
0000
0110
0000
0100
1000
,  // measure 50
0010
0000
0000
0000
0001
0010
1000
0000
,  // measure 51
0000
2000
3002
0023
,  // measure 52
0230
2300
3200
0320
,  // measure 53
0032
0023
0230
0320
,  // measure 54
0000
0230
0000
2300
0000
3002
0000
2003
,  // measure 55
0000
3002
0000
0023
0000
0230
0000
0320
,  // measure 56
0000
0000
0000
2030
0000
3200
0000
0000
,  // measure 57
0320
0000
0000
0032
0000
0020
0003
0000
,  // measure 58
0032
0020
0003
0000
0230
0000
2300
0000
,  // measure 59
3200
2300
3200
0320
,  // measure 60
0230
0000
0300
0020
0230
0000
0000
0302
,  // measure 61
0000
0203
0302
0000
0000
0203
0000
2300
,  // measure 62
0000
3200
0000
0000
0000
2300
0000
3020
,  // measure 63
0000
0000
0032
0000
0000
0023
0000
0230
,  // measure 64
0000
0000
0310
0200
0000
0000
0320
0000
,  // measure 65
1030
0002
2003
3002
,  // measure 66
0023
0032
0023
0230
,  // measure 67
2300
0000
3020
0000
0032
0000
0020
0003
,  // measure 68
0000
2030
3200
0000
0000
0000
0000
0310
,  // measure 69
0002
0000
0000
0000
0023
0000
0000
2030
,  // measure 70
0000
3200
0000
0310
0000
0200
0000
0320
,  // measure 71
0000
0002
0030
0023
0000
0032
0000
0000
,  // measure 72
0023
2030
0000
0000
3020
0000
2030
0200
,  // measure 73
3000
0000
2300
0000
3100
0002
0000
0000
,  // measure 74
0203
0302
0023
0000
,  // measure 75
0002
0030
0023
0000
0000
2030
0000
0000
,  // measure 76
0020
0000
0030
3200
0300
0020
0000
0030
,  // measure 77
0001
0000
0010
0100
0000
2000
0000
3200
,  // measure 78
0000
0302
0000
0000
0023
0000
0130
0000
,  // measure 79
0010
0200
0000
0300
2000
0000
3020
0000
,  // measure 80
0000
0032
0000
0103
0010
0200
0000
0000
,  // measure 81
2300
0000
3020
0000
0000
0032
0000
0203
,  // measure 82
0300
1000
0200
0000
0320
0000
0032
0000
,  // measure 83
0000
0023
0000
2030
0000
3020
0230
0000
,  // measure 84
0000
0320
0000
0230
0000
0000
2300
0000
,  // measure 85
3002
2003
0000
3002
0000
0020
0003
0030
,  // measure 86
0200
0000
0320
0000
0130
0000
0010
2000
,  // measure 87
0000
3200
0000
2300
0000
0000
0000
3020
,  // measure 88
0032
0000
0013
0000
0100
1000
0100
0010
,  // measure 89
0000
0001
0010
0100
1000
0100
0010
0000
,  // measure 90
0001
0010
0100
1000
0000
0100
0010
0001
,  // measure 91
0100
0010
0100
1000
0100
0010
0001
0010
,  // measure 92
1000
0100
1000
0100
0010
0001
0010
1000
,  // measure 93
0100
1000
0100
0010
0001
0010
0100
1000
,  // measure 94
0010
0100
0010
0001
0010
0100
0010
0001
,  // measure 95
0010
0100
1000
0010
0100
0010
0100
1000
,  // measure 96
0100
0010
0001
0010
0100
0010
0001
0010
,  // measure 97
0100
1000
0010
0100
0010
0100
1000
0100
,  // measure 98
0010
0001
0010
0100
0010
0001
0010
0100
,  // measure 99
1000
0100
0010
0100
1000
0100
0010
0001
,  // measure 100
0010
1000
0100
0010
0001
0010
0100
1000
,  // measure 101
0100
0010
0100
0010
1000
0100
0010
0001
,  // measure 102
0010
0100
0010
0220
0000
0000
0000
0000
,  // measure 103
0000
0000
0000
0000
,  // measure 104
0330
0000
0000
0000
;
