#TITLE:ファッションモンスター;
#SUBTITLE:;
#ARTIST:きゃりーぱみゅぱみゅ;
#TITLETRANSLIT:FASHION MONSTER;
#SUBTITLETRANSLIT:;
#ARTISTTRANSLIT:KYARY PAMYU PAMYU;
#GENRE:;
#CREDIT:;
#BANNER:fashionmonster.png;
#BACKGROUND:fashionmonster-bg.png;
#LYRICSPATH:;
#CDTITLE:!auraesimfilesmix2.png;
#MUSIC:fashionmonster.mp3;
#OFFSET:0.349;
#SAMPLESTART:80.275;
#SAMPLELENGTH:24.040;
#SELECTABLE:YES;
#DISPLAYBPM:160.000;
#BPMS:0.000=160.000
;
#STOPS:
;
#BGCHANGES:0.460=fashionmonster.avi=1.000=1=0=0=StretchNoLoop==CrossFade==,
99999=-nosongbg-=1.000=0=0=0 // don't automatically add -songbackground-
;
#KEYSOUNDS:;
#ATTACKS:;

//---------------dance-single - aurae----------------
#NOTES:
     dance-single:
     aurae:
     Easy:
     4:
     0.276,0.361,0.057,0.047,0.000,510.000,16.000,13.000,0.000,0.000,0.000,0.276,0.361,0.057,0.047,0.000,510.000,16.000,13.000,0.000,0.000,0.000:
0000
0000
0000
0000
,
0000
0000
0000
0000
,
0000
0000
0000
0000
,
0000
0000
0000
0000
,
0000
0000
0000
0000
,
0000
0000
0000
0000
,
0000
0000
0000
0000
,
0000
0000
0000
0000
,
0000
0000
0000
0000
,
0000
0000
0000
0010
,
0000
0010
0000
0010
,
0000
0010
0000
0000
,
0000
0010
0000
0001
,
0000
1000
0000
0000
,
0000
0100
0000
0100
,
0000
0100
0000
0000
,
0000
1000
0000
1000
,
0000
1000
0000
0000
,
0000
0001
0000
0001
,
0000
0001
0000
0000
,
0000
0100
0000
0100
,
0000
1001
0000
0000
,
0000
0001
0000
0010
,
0000
0001
0000
0100
,
0001
0100
0000
0001
,
0000
1000
0000
0010
,
1000
0100
0000
1000
,
0000
0001
0000
1000
,
0001
0100
0000
0010
,
0000
1000
0000
0001
,
0010
0001
0000
0010
,
0001
0100
0000
0001
,
0001
1000
0000
0010
,
1000
0010
0000
1000
,
1000
0100
0000
0010
,
0000
0001
0000
0010
,
0000
0100
0000
1000
,
0000
0001
1000
0001
,
1000
0100
1000
0100
,
0000
1000
0010
1000
,
1000
0001
0100
0001
,
0000
0010
0001
0100
,
0100
0010
1000
0100
,
0000
0010
0001
0100
,
0100
0001
0010
0001
,
0000
1000
0001
0010
,
0010
0002
0003
1000
,
1000
0002
0003
0100
,
0100
0002
0003
0010
,
0010
0001
1000
0001
,
0000
2000
3000
0010
,
0010
2000
3000
0100
,
0100
1001
0000
0000
,
0000
0000
0000
0000
,
0000
0001
0100
0001
,
0100
0001
1000
0010
,
0000
1000
0100
0100
,
1000
0001
0010
0010
,
0000
0001
1000
0100
,
1000
0010
0100
0010
,
0000
1000
0100
1000
,
1000
0001
0010
0001
,
0000
0100
0001
0100
,
0001
1000
1000
0100
,
0000
1000
0010
1000
,
0100
0010
0001
0100
,
0000
0001
1000
0010
,
1000
0100
0100
0010
,
0001
1001
0000
1001
,
0000
0001
1000
0001
,
0000
1000
0100
0010
,
0001
1000
0100
0010
,
0001
1000
0010
0100
,
0001
1000
0010
0200
,
0300
0001
1000
0001
,
1000
0100
1000
0010
,
0010
1000
0100
0010
,
0001
0100
0001
1000
,
0000
0001
0000
0100
,
0000
0100
0000
0001
,
0000
1001
0000
1000
,
0000
0100
0000
1000
,
0000
0010
0000
0100
,
0000
0010
0000
1000
,
0000
1001
0000
0100
,
0000
0001
0000
0010
,
0000
1001
0000
0000
,
0000
0000
0000
0000
,
0000
0000
0000
0000
,
0000
0000
0000
0001
,
1000
0001
0000
0000
,
0000
0000
0000
0000
,
0000
0000
0000
0000
,
0000
0000
0000
0000
,
0000
0100
0100
0100
,
0100
0100
0100
0100
,
0100
0001
1000
0100
,
1000
0001
1000
0100
,
1000
0010
0010
0010
,
0010
0010
0010
0010
,
0010
1000
0000
0001
,
0000
1100
0000
0101
,
0000
1000
0100
1000
,
0001
0100
0100
0001
,
0000
0010
0001
0100
,
0001
1000
0010
0100
,
0100
0010
1000
0100
,
1000
0001
0010
0001
,
0000
0100
0001
1000
,
0100
1000
0010
0100
,
0100
0020
0030
1000
,
1000
0020
0030
0100
,
0100
0020
0030
1000
,
1000
0001
0100
0001
,
0001
0200
0300
0001
,
0001
0200
0300
0010
,
0010
1001
0000
0000
,
0000
0000
0000
0000
,
0000
0001
1000
0100
,
1000
0010
0010
0100
,
0010
1000
0100
1000
,
0001
0010
0001
0100
,
0000
0001
0010
0001
,
0001
1000
0100
1000
,
0010
0100
0001
1000
,
0100
0010
0001
0010
,
0000
0100
1000
0001
,
0001
1000
0001
0100
,
0000
0001
1000
0010
,
0100
0100
0010
1000
,
0000
0100
0010
0001
,
1000
0001
0010
0001
,
0100
0010
0000
1000
,
0000
0001
0000
1000
,
0000
0100
0010
0001
,
0000
0100
0010
1000
,
0000
0010
0100
0100
,
0001
1000
0100
1000
,
0000
0001
0010
0010
,
0000
0001
1000
1000
,
0000
0100
1000
0001
,
0100
0001
0000
1000
,
0000
0100
0000
0010
,
0001
0100
0000
0001
,
1000
0100
0000
1000
,
0010
0100
0000
0010
,
1000
0001
0000
0100
,
0001
0010
0001
1000
,
0001
0100
0001
0000
,
1000
0000
0001
0000
,
1000
0100
0010
0001
,
0100
0100
0010
1000
,
0100
0100
1000
0001
,
0010
0001
0100
0010
,
0000
1000
0100
0010
,
0001
1000
0001
0100
,
0010
1000
0001
0010
,
0100
0010
0001
0100
,
0000
0001
1000
1000
,
0100
1000
0010
0100
,
0000
0010
1000
1000
,
0100
0010
0001
1000
,
0000
0001
0010
0010
,
0001
0100
0100
0001
,
1000
0001
0000
1000
,
0000
0001
0000
1000
,
0000
0100
0010
0001
,
0100
0010
0001
0100
,
0010
0001
0100
0010
,
0001
0100
0010
0001
,
0000
0100
0010
1000
,
0100
0010
1000
0100
,
0010
1000
0100
0010
,
1000
0100
0010
1000
,
0000
0001
1000
1000
,
0100
1000
0001
0001
,
0000
0010
0001
0001
,
0100
0010
0010
1000
,
0000
0100
1000
0001
,
0100
0010
1000
0100
,
0010
1001
0000
0101
,
0000
1001
0110
1001
,
0220
0000
0000
0000
,
0330
0000
0000
0000
;

//---------------dance-single - aurae----------------
#NOTES:
     dance-single:
     aurae:
     Medium:
     6:
     0.438,0.460,0.118,0.122,0.000,787.000,33.000,34.000,0.000,0.000,0.000,0.438,0.460,0.118,0.122,0.000,787.000,33.000,34.000,0.000,0.000,0.000:
0000
0000
0000
0000
,
0000
0000
0000
0000
,
0000
0000
0000
0000
,
0000
0000
0000
0000
,
0000
0000
0000
0000
,
0000
0000
0000
0000
,
0000
0000
0000
0000
,
0000
0000
0000
0000
,
0000
0000
0000
0000
,
0000
0000
0000
1000
,
0001
0000
0020
0000
0000
0032
0000
0000
,
0000
0000
0000
0000
,
0003
0000
0001
0000
0000
0100
0000
0000
,
0010
0000
0100
0000
0000
0001
1000
0000
,
0010
0000
0200
0000
0000
0320
0000
0000
,
0000
0000
0000
0000
,
0030
0000
0010
0000
0000
1000
0000
0000
,
0100
0000
0010
0000
0000
0010
0001
0000
,
0100
0000
0020
0000
0000
2030
0000
0000
,
0000
0000
0000
0000
,
3000
0000
1000
0000
0000
0010
0000
0000
,
0100
0001
1000
0000
0000
0000
0000
0000
,
0000
0000
0001
0000
0010
0001
0000
1000
,
0001
0100
0010
1000
,
0100
0000
1000
0000
0010
1000
0000
0001
,
1000
0100
0010
0001
,
1000
0000
0010
0000
0100
0010
0000
1000
,
0010
0100
0001
1000
,
0001
0000
0010
0000
0001
0100
0000
0001
,
1000
0100
1000
0010
,
0010
0000
0100
0000
0001
1000
0100
0000
,
1100
0000
1000
0001
,
0010
0000
0001
0000
0100
0010
1000
0000
,
1010
0000
1000
0001
,
0010
0000
0001
0000
0100
0001
0010
0000
,
0011
0000
0001
1000
,
0100
0000
1000
1000
0001
0000
0100
0100
,
0001
0000
1000
0001
1000
0001
1000
0000
,
0110
0000
1001
0000
0001
0100
0001
0000
,
1000
1000
0000
0000
0010
1000
0100
0000
,
0010
0010
0000
0000
1000
0010
1000
0000
,
0001
0001
0000
0000
0100
0010
1000
0001
,
0100
0000
0001
0000
1000
0000
0001
0010
,
0001
0010
0000
0000
0100
0000
1000
0010
,
1000
0010
0000
0000
0100
0000
0001
1000
,
0001
1000
0000
0000
0100
0000
0010
0000
,
0001
1001
1001
0100
,
0100
1001
1001
0010
,
0010
1001
1001
0100
,
0100
0000
0001
1000
0100
1000
0001
0010
,
0001
0000
1100
0000
1100
0000
1000
0100
,
0010
0000
0011
0000
0011
0000
0001
0100
,
0010
2020
0000
0000
,
0000
3030
0000
0000
,
0000
0000
1000
0000
0100
0010
0001
0000
,
0100
0000
0100
0000
0001
1000
0001
1000
,
0001
0000
0100
0000
0010
1000
0010
0000
,
0100
0000
0100
0000
0010
1000
0100
1000
,
0001
0000
0010
0000
0001
0100
0001
0100
,
0001
0000
1000
0000
1000
0000
0010
1000
,
0100
0000
0010
0001
0010
0001
0010
0000
,
0001
0100
0010
0000
1000
0000
0001
0000
,
0100
0000
0001
0000
0010
0100
1000
0000
,
0100
0000
1000
0010
1000
0000
0001
0100
,
0001
0000
0010
0000
0001
0100
0010
0000
,
1000
0000
0100
1000
0100
0000
1000
0001
,
1000
0001
1000
0000
0100
0010
0001
0000
,
0100
0000
0010
1000
0001
0000
0100
0001
,
0100
0001
2000
0000
3000
0000
0002
0000
,
0003
0100
0101
1001
,
0011
1100
1000
0100
,
1000
0000
0001
0100
0001
0000
1000
0100
,
1000
0001
0010
0001
,
0100
0001
0100
0001
0010
0001
0100
0000
,
0101
1001
1000
0010
,
1000
0000
0010
1000
0010
0000
1000
0001
,
1000
0001
0100
0001
,
0100
0001
0100
0010
0100
0001
1000
0000
,
0000
0000
0011
0000
0001
0000
0100
0010
,
0000
1000
0000
0010
1000
0000
0100
1000
,
0001
1000
0200
0000
0000
0010
0000
0000
,
0310
0000
0100
1000
,
0001
0000
0100
0000
0001
0000
1000
0010
,
0000
1000
0000
0001
0100
0000
0010
1000
,
0100
1000
0002
0000
0000
0010
0000
0000
,
1003
0000
1000
0001
,
0100
0001
2000
0000
0000
3020
0000
0000
,
0000
0000
0000
0000
,
0030
0000
0000
0000
,
0000
0000
0000
0100
,
0001
0000
2000
0000
0000
3200
0000
0000
,
0000
0000
0000
0000
,
0300
0000
0000
0000
,
0000
0000
0000
0000
,
0000
0000
0100
0010
0001
0000
1000
0000
,
0001
0100
1000
0000
0100
0000
0001
0000
,
1000
0001
0010
0000
0001
0000
1000
0010
,
0001
0000
0010
0000
1000
0000
0001
1000
,
0100
1000
0001
0000
0100
0010
1000
0000
,
0001
0000
0010
0001
0100
0000
0010
0000
,
1000
0100
1000
0000
0001
0000
1100
0000
,
0101
1001
0000
0000
,
0000
0000
0001
0010
0001
0100
0010
0000
,
1000
0000
0010
1000
0100
0000
1000
0000
,
1000
0000
0001
0100
0010
0100
0001
0000
,
0010
0000
0010
0000
0001
1000
0100
1000
,
0100
1000
0100
0000
1000
0000
0001
1000
,
0010
0100
0001
0000
0010
0001
1000
0000
,
0001
0000
0001
0100
0010
0000
1000
0000
,
0100
0010
0001
0100
0010
0000
1000
0000
,
0100
1000
0002
0000
0003
0000
1000
0001
,
1000
0100
0002
0000
0003
0000
0001
0100
,
1000
0010
2000
0000
3000
0000
1000
0010
,
0001
0010
0000
1000
0100
0001
0100
0000
,
1000
0000
0020
0000
0030
0000
0010
1000
,
0001
1000
0020
0000
0030
0000
0100
0001
,
1000
0010
0200
0000
0300
0000
0001
0000
,
1000
0000
0010
1000
0100
0000
1100
0000
,
1010
0000
0110
0000
0100
0001
0010
0000
,
0001
0000
0001
0000
1000
0010
1000
0100
,
1000
0000
0001
0000
0010
0001
0100
0000
,
0100
0000
0001
1000
0001
0000
0100
0010
,
1000
0100
0010
0000
0001
0100
0001
0000
,
1000
0100
1000
0010
,
0010
1000
0100
0000
1000
0000
0001
0010
,
0001
0000
0100
0001
1000
0000
0001
0000
,
0001
0000
1000
0000
0100
1000
0010
0000
,
0100
0000
0100
0001
0010
0000
0001
1000
,
0001
1000
0100
0000
1000
0010
0100
0000
,
0010
0000
0010
1000
0100
0000
0010
0001
,
0100
0010
1000
0000
1000
0100
1000
0001
,
0100
0000
0001
1000
0100
1000
0010
0000
,
0100
0001
0020
0000
0030
0000
0200
0000
,
0300
1000
0100
0010
,
0001
0000
0100
0000
0001
0100
0000
0001
,
1000
0000
0010
0000
1000
0000
0100
1000
,
0100
0000
1000
0000
0010
0100
0000
0001
,
0010
0000
0001
0000
1000
0000
0010
0100
,
0001
0000
0100
0000
0010
1000
0000
0001
,
1000
0000
0100
0000
1000
0000
0010
1000
,
0010
0000
0100
0000
0001
1000
0000
0100
,
0010
0000
0001
0010
0100
1000
0100
0000
,
1000
0000
0002
0000
0000
0203
0000
0000
,
2300
0000
0000
3100
,
0001
0000
2000
0000
0000
3020
0000
0000
,
0032
0000
0013
1000
,
0100
0000
0002
0000
0000
0203
0000
0000
,
2300
0000
0000
0000
3100
0000
0010
0001
,
1000
0001
0001
1000
,
1000
0000
0001
0100
0001
0000
1000
0000
,
0100
0000
0010
0000
0001
1000
0100
0000
,
1000
0000
1000
0000
0001
0100
0001
0000
,
0010
0000
0001
0100
0010
1000
0100
0000
,
1000
0000
1000
0000
0001
0010
0001
0000
,
0100
0000
0100
0010
1000
0000
0010
1000
,
0100
0000
1000
0001
0100
0000
0100
0001
,
0010
0001
0010
0000
0001
0000
1000
0100
,
1000
0000
0001
0000
0001
0000
1000
0001
,
1000
0000
0100
0000
0010
0001
1000
0000
,
0100
0000
0100
1000
0010
1000
0010
0000
,
0100
0000
0001
0000
1000
0100
1000
0000
,
0001
0000
0100
0001
0100
0001
0010
0000
,
0001
0100
0010
0000
1000
0000
0001
0010
,
0100
0000
1000
0100
0010
0000
0001
1000
,
0010
0100
0001
0001
0000
0000
1000
1000
,
0000
0000
0001
0001
0001
0000
1000
1000
,
1000
0101
0001
1000
,
0100
0000
0100
0000
1000
0000
0010
1000
,
0100
1100
1000
0001
,
0001
0000
0010
0001
0100
0000
0001
1000
,
0010
1010
1000
0100
,
0010
0001
0010
0000
0001
0000
0100
0001
,
0010
0000
0101
0000
0001
0000
1000
0100
,
1000
0000
0010
0000
0010
0000
1000
0100
,
0010
0000
0001
0000
0100
0001
1000
0000
,
1000
0000
0010
1000
0100
1000
0001
0000
,
0010
0000
0001
0000
0100
0010
1000
0000
,
0100
0000
0100
1000
0100
0000
1000
0001
,
1000
0000
0001
0000
0100
0010
1000
0100
,
0010
0000
0001
0000
1000
0000
0100
1000
,
0001
0000
0100
0100
0100
0000
0010
0010
,
0010
0000
1000
0100
0010
0001
1000
0010
,
0200
0000
0000
0000
,
0300
0000
0000
0000
;

//---------------dance-single - aurae----------------
#NOTES:
     dance-single:
     aurae:
     Hard:
     8:
     0.582,0.624,0.312,0.129,0.022,1012.000,87.000,36.000,0.000,0.000,0.000,0.582,0.624,0.312,0.129,0.022,1012.000,87.000,36.000,0.000,0.000,0.000:
0000
0000
0000
0000
,
0000
0000
0000
0000
,
0000
0000
0000
0000
,
0000
0000
0000
0000
,
0000
0000
0000
0000
,
0000
0000
0000
0000
,
0000
0000
0000
0000
,
0000
0000
0000
0000
,
0000
0000
0000
0000
,
0000
0000
0000
1000
,
0100
0000
0001
0000
0000
0100
0010
0000
,
0100
0000
1000
0000
0000
0010
1000
0000
,
0100
0000
0001
0000
0000
0100
0010
0000
,
0100
0000
1000
0000
0000
0010
0100
0000
,
0001
0000
2100
0000
0000
0001
0001
0000
,
3010
0000
0100
0000
0000
1000
0010
0000
,
0100
0000
0001
0000
0000
0010
0001
0000
,
1000
0000
0010
0000
0000
0100
0001
0000
,
1000
0000
0001
0000
0010
0001
0010
0000
,
0001
0000
1000
0000
0010
1000
0100
0000
,
1000
0000
0001
0000
1000
0001
0100
0000
,
0001
0200
2000
0000
0000
0000
0000
0000
,
3300
0000
0101
0000
0001
1000
0020
0000
,
2030
0001
0010
0001
,
3100
1000
0001
0000
0010
0001
0100
0000
,
0002
0010
0100
1003
,
0001
0100
0001
0000
1000
0010
0100
0000
,
0010
0000
1000
0100
0010
0001
0100
0010
,
1000
0000
0001
0000
0100
0001
0010
0000
,
0001
0000
0101
0000
1001
0000
1000
0100
,
1000
0100
0010
0000
0001
0100
0020
0000
,
2030
0001
0100
0001
,
3100
1000
0010
0000
0100
0001
0010
0000
,
0002
1000
0100
0013
,
0001
1000
0010
0000
0010
1000
0100
0000
,
1000
0000
0001
0010
0001
0010
0001
0100
,
0001
1000
0100
0000
1100
0000
0001
0000
,
1010
0000
0000
0000
0100
0000
0001
0000
0000
1000
0000
0000
0001
0000
0000
0100
,
0020
0030
1000
0100
0010
0001
1000
0001
,
0000
0101
0000
1000
0100
0010
0001
1000
,
0010
0000
0100
0001
0010
0100
1000
0010
,
0000
1010
0000
0100
0001
0010
0001
0000
,
1001
0000
0100
1000
0010
1000
0001
0100
,
0000
0101
0000
0001
0100
0010
1000
0100
,
1000
0000
0010
1000
0100
1000
0001
0010
,
0000
0011
0000
0001
0100
0010
0100
0001
,
1000
1000
0100
0000
1100
0000
1000
1000
,
0001
0001
0010
0000
0011
0000
0001
0001
,
0100
0100
0010
0000
1010
0000
1000
1000
,
0100
0100
0010
0001
0100
0010
1000
0100
,
0010
0001
0010
0000
0110
0000
0100
0100
,
1000
1000
0001
0000
0101
0000
0100
0100
,
0010
0010
1000
0001
0100
0001
0010
0100
,
1000
0100
0010
0000
0010
0000
0020
0000
,
0030
0000
0001
0100
0010
1000
0100
0000
,
1000
0100
1000
0001
0010
0010
0001
0000
,
0100
0000
0010
1000
0100
1000
0001
0000
,
0100
0000
0100
0010
1000
0010
0100
0001
,
0001
0000
1000
1000
0001
0010
0001
0100
,
0001
1000
0000
0010
1000
0000
0001
0100
,
1000
0100
0010
1000
0100
1000
1000
0000
,
0001
0010
0000
0001
0100
0000
0101
0000
,
0011
0000
1001
0000
0100
0001
0020
0000
,
0230
1000
0010
0301
,
0100
0000
1000
0000
0100
0010
0002
0000
,
0203
0001
0010
1300
,
0100
0000
0001
0000
1000
0001
0020
0000
,
0032
1000
0010
1003
,
1000
0000
0100
0010
0001
0000
0101
0000
,
1001
0000
0001
1000
0100
1000
0010
0010
,
0100
0000
0001
0010
0001
0010
0001
0010
,
0001
0100
0010
1000
0100
1000
0010
1000
,
0100
0000
1000
0010
1000
0010
1000
0010
,
0100
0001
0010
0001
0100
0010
1000
0100
,
1000
0000
0001
0100
0001
0100
0001
0100
,
0010
0100
0010
1000
0100
1000
0001
0100
,
0001
0000
0010
0100
1000
0010
0100
0010
,
1000
0000
0100
0010
0001
0100
0020
0000
,
0000
0000
1030
0000
0001
0000
0001
0100
,
0000
0001
1000
0000
0100
0000
1000
0010
,
1000
0000
0001
0000
0010
0000
0001
0100
,
0000
0001
1000
0000
0010
0000
1000
0010
,
1000
0100
0010
0000
0001
0000
0010
0001
,
0000
0100
0001
0000
0010
0000
0001
1000
,
0100
0000
1000
0000
0001
0010
0000
0001
,
0010
0000
0001
0100
0010
0000
1000
0100
,
0010
0001
0020
0000
1030
0020
0001
0000
,
0100
0100
0000
0001
,
0000
1000
0000
0001
,
0100
0100
0031
0010
,
0100
0000
0200
0000
0301
0200
1000
0000
,
0010
0010
0000
1000
,
0000
0001
0000
1000
,
0010
0010
0000
0301
,
0100
0000
0010
0001
0100
0001
1000
0010
,
1000
0100
0010
0001
1000
0001
0001
0010
,
0001
0000
0100
0001
0010
0001
1000
0010
,
1000
0100
0010
0001
1000
0001
0100
0010
,
1000
0000
0100
0010
0001
0010
0100
0000
,
1100
0000
1000
0001
0100
0001
0010
0000
,
0101
0000
0100
0010
1000
0100
1000
0001
,
0010
0001
0100
0000
0000
0000
0000
0000
,
0000
0000
0001
1000
0100
0010
0001
1000
,
0000
1100
0000
1000
0001
0010
0011
0000
,
0101
0000
1000
0001
0010
0001
0100
0010
,
0000
1010
0000
1000
0100
0010
0011
0000
,
1001
0000
1000
0010
0100
0001
1000
0001
,
0000
0011
0000
0001
0100
0010
1010
0000
,
1100
0000
0001
1000
0100
1000
0010
0100
,
0000
0101
0000
0001
0010
0001
0101
0000
,
1001
0000
0010
0000
1001
0100
0001
0010
,
0001
0010
0100
0000
1001
0010
0100
1000
,
0100
1000
0010
0000
1001
0100
1000
0001
,
0100
0010
0000
0100
0001
0010
0100
1000
,
0100
0000
0001
0000
1100
1000
0100
0001
,
0100
1000
0100
0000
0011
0001
0010
1000
,
0010
0001
0100
0001
0100
1000
0100
0001
,
0010
1000
0100
0000
0001
0000
1000
0000
,
0001
0000
0101
0000
0001
0100
0020
0000
,
2030
0001
0010
3001
,
1000
0100
0010
0000
0001
1000
0020
0000
,
0230
0000
0001
0000
1000
0000
0310
0100
,
0010
1000
0100
1000
0000
0001
0000
0100
,
0001
1000
0100
0000
1000
0000
0001
0010
,
0001
0100
0010
0000
1010
0000
1000
0100
,
0010
0001
0000
0010
0001
0000
0100
0010
,
0100
0000
0101
0000
0001
1000
0100
0000
,
2100
0000
0010
0000
0100
0000
3010
1000
,
0100
1000
0001
0000
0010
0001
0200
0000
,
0302
0010
0100
1003
,
0101
0000
2001
0000
3010
1000
0100
0000
,
0010
0000
0001
0100
0010
1000
0100
1000
,
1100
0000
0000
0000
1001
0000
0000
0001
0010
0000
0000
0000
1001
0000
0000
1000
,
0010
0000
0100
0000
0001
0000
0000
1000
0010
0000
0100
0000
0000
0001
0000
0000
,
1000
0001
1000
0001
1000
0000
0000
0000
0100
0000
0010
0000
0001
0000
0000
0000
,
1000
0000
0001
0100
0010
1000
0100
0010
,
0001
0000
1000
0001
1000
0000
0000
0000
0001
0000
0100
0000
0010
0000
0000
0000
,
1000
0000
0100
0010
0001
1000
0100
0000
,
1000
0001
0100
0000
0010
1000
0001
0000
,
0010
0001
0100
0010
1000
0100
0010
0001
,
0100
0000
0010
1000
0001
0100
0010
1000
,
0100
0000
1000
1000
0001
0001
0010
0010
,
0001
0100
0010
0000
0110
0100
0001
0000
,
1100
0000
1000
0001
0100
0001
0010
0001
,
0100
0000
0010
1000
0010
0000
0000
0000
1000
0000
0010
0000
0100
0000
0000
0000
,
0011
0000
0100
0010
1000
0100
1000
0001
,
0010
0001
0101
0000
0100
0001
0010
0000
,
1100
0000
1000
0100
1000
0010
0100
0010
,
1000
0000
0100
1000
0001
0000
0000
0000
1000
0000
0000
0000
0001
0000
0001
0000
,
0010
0001
1000
0000
0001
0000
1001
0000
,
0110
0000
1001
0000
1000
0100
0001
0100
,
1000
0100
0010
0000
0001
1000
0100
0000
,
1100
0000
1010
0000
0001
1000
0010
0000
,
1000
0010
0001
0010
1000
0100
1000
0010
,
0010
1000
0100
0000
0010
0001
0100
0001
,
0000
1001
0000
0001
0100
0000
0001
0010
,
0001
1000
0100
0000
1100
0000
1000
0010
,
0100
0010
0000
1000
0001
0000
0010
0001
,
0010
0000
1100
0000
1000
0001
0001
0000
,
0010
0001
0100
0010
0010
0000
1000
0100
,
1000
0001
0010
0000
0001
0100
0100
0000
,
0010
1000
0100
0100
1000
0001
0010
0000
,
0011
0000
0101
0000
0001
1000
0010
0000
,
1000
0010
1000
0010
0100
0001
0010
0000
,
0001
0000
0101
0101
0101
0000
1001
1001
,
1001
1100
1001
0011
,
0110
0000
1001
0000
1000
0100
1000
0010
,
0100
0001
0010
0001
0100
0010
1000
0100
,
0001
0100
1000
0010
0100
0100
0010
1000
,
0001
0010
0001
0100
1000
0001
0010
1000
,
0100
1000
0010
0100
0001
0001
0010
0001
,
1000
0100
1000
0010
0010
1000
0001
0100
,
0001
0000
0010
0001
0010
0000
0001
0000
0100
0000
0000
0000
0001
0000
1000
0000
,
0100
0100
1000
0000
1010
0000
1001
0000
,
0011
0000
0101
0000
0100
0010
1000
0100
,
0100
1000
0001
0010
0001
0100
0010
1000
,
0100
1000
1000
0100
0010
0001
0001
0100
,
0010
1000
0001
0100
0100
0001
0010
0001
,
1000
0100
0010
0000
0001
0100
0010
1000
,
0100
1000
1000
0001
0001
0100
0001
1000
,
0100
0000
0011
0022
0033
0000
1001
2002
,
3003
0110
0101
1010
,
2002
0000
0000
0000
,
3003
0000
0000
0000
;
