#TITLE:チュパカブラ;
#SUBTITLE:;
#ARTIST:水曜日のカンパネラ;
#CREDIT:;
#MUSIC:chupacabra.mp3;
#SELECTABLE:YES;
#BACKGROUND:chupacabra-bg.png;
#BANNER:chupacabra.png;
#CDTITLE:!auraesimfilesmix2.png;
#OFFSET:-0.529887;
#SAMPLESTART:61.006;
#SAMPLELENGTH:17.143;
#BPMS:0=126;
#STOPS:161=0.47619,196=0.47619;
#TITLETRANSLIT:CHUPACABRA;
#ARTISTTRANSLIT:SUIYOUBI NO CAMPANELLA;
//---------------dance-single - ----------------
#NOTES:
     dance-single:
     :
     Easy:
     3:
     0.000,0.000,0.000,0.000,0.000:
0000
0000
0000
0000
,
0000
0000
0000
0000
,
0000
0000
0000
0000
,
0000
0000
0000
0000
,
0000
0000
0001
0001
,
0001
0000
1000
1000
,
1000
0000
0010
0010
,
0010
0100
0000
0001
,
0000
1000
1000
1000
,
1000
0000
0010
0010
,
0010
0000
0100
0100
,
0100
0001
0000
1000
,
0000
0001
0010
0001
,
0000
1000
0010
1000
,
0000
0001
0100
0001
,
0000
1000
0001
0001
,
1000
0001
0000
0100
,
0010
1000
0000
0010
,
0100
0001
0000
1000
,
0001
1000
0000
0001
,
0010
0010
0000
0001
,
0100
0001
0000
1000
,
0001
1000
0000
0010
,
1000
0100
0010
0001
,
0100
1001
0000
0000
,
0000
0000
0000
0001
,
1000
0010
0000
1000
,
0000
0010
0000
1000
,
0000
0001
0000
0000
,
0000
0000
0000
0001
,
1000
0100
0000
1000
,
0000
0010
0000
0010
,
1000
0001
0001
0010
,
0001
0100
0000
0100
,
0010
1000
1000
0010
,
1000
0100
0000
1000
,
0001
1000
1000
1000
,
1000
0001
0001
0001
,
0001
1000
0001
1000
,
0001
1000
0000
0000
,
0000
1001
0001
0100
,
0001
0010
0010
0001
,
1000
1000
0100
0000
,
0010
0100
0100
0001
,
1000
0001
1000
0000
,
0001
0100
0100
0001
,
0010
0010
0001
0000
,
1000
0010
1000
0100
,
0100
0000
0000
0000
0000
0000
0000
0000
0000
0000
0000
0000
0000
0000
0000
0000
0000
0000
0000
0000
0000
0000
0000
0000
0000
0000
0000
0000
0000
0000
0000
0000
0000
0000
0000
0000
0000
0000
0000
0000
0000
0000
0000
0000
0000
0000
0000
0000
2000
0000
0000
0000
0000
0000
0000
0000
0000
0000
0000
0000
0000
3000
0000
0000
0000
0000
0000
0000
0000
0000
0000
0000
0000
0000
0000
0000
0000
0000
0000
0000
0000
0000
0000
0000
0000
0000
0000
0000
0000
0000
0000
0000
0000
0000
0000
0000
0001
0000
0000
0000
0000
0000
0000
0000
0000
0000
0000
0000
0000
0000
0000
0000
0000
0000
0000
0000
0000
0000
0000
0000
0000
0000
0000
0000
0000
0000
0000
0000
0000
0000
0000
0000
0000
0000
0000
0000
0000
0000
0000
0000
0000
0000
0000
0000
0010
0000
0000
0000
0000
0000
0000
0000
0000
0000
0000
0000
0000
0000
0000
0000
0000
0000
0000
0000
0000
0000
0000
0000
0000
0000
0000
0000
0000
0000
0000
0000
0000
0000
0000
0000
0000
0000
0000
0000
0000
0000
0000
0000
0000
0000
0000
0000
,
0001
0100
0100
0001
,
0000
1000
0001
0001
,
1000
0010
0010
0100
,
0010
1000
1000
0001
,
1000
0100
0100
1000
,
0010
0100
0100
0010
,
1000
0001
0100
0001
,
1000
0001
1000
0001
,
1000
0010
0010
0000
,
1000
1000
0001
0000
,
0010
0000
0001
0000
,
0100
0001
1000
0010
,
0100
1001
0000
0000
,
0000
0000
0000
0000
;
//---------------dance-single - ----------------
#NOTES:
     dance-single:
     :
     Medium:
     6:
     0.000,0.000,0.000,0.000,0.000:
0000
0000
0000
0000
,
0000
0000
0000
0000
,
0000
0000
0000
0000
,
0000
0000
0000
0000
,
0000
0000
0000
0000
0000
0000
0010
0000
1000
0000
0000
0001
0000
0000
0100
0000
,
0100
0000
0001
0010
0001
0000
1000
0000
,
0010
1000
0100
1000
1000
0000
0010
0100
,
0001
0010
0100
0000
0010
0001
1000
0000
,
0001
0000
0100
0000
0011
0000
0001
0100
,
0010
0000
0100
0000
1010
0000
0010
1000
,
0100
1000
0001
0000
1100
0000
0010
1000
,
0100
0000
1000
0000
0101
0000
0001
1000
,
0001
0000
0000
0000
1000
0000
0010
0000
0010
0000
0000
1000
0000
0000
0100
0000
,
0100
0000
0010
0001
0100
0001
1000
0000
,
0110
0000
0000
0000
0010
0000
0100
0000
0100
0000
0000
0001
0000
0000
1000
0000
,
1000
0000
0010
1000
1010
0000
0001
1000
,
1001
0000
0000
0000
1000
0000
0001
0000
0001
0000
0000
0010
0000
0000
0001
0000
,
0001
0000
0100
0010
1000
0001
0010
0000
,
0100
0000
0000
0000
1000
0000
0010
0000
0010
0000
0000
0100
0000
0000
0001
0000
,
0001
0000
0010
0100
1000
0000
0010
0100
,
0001
1000
0010
0100
0001
0001
1000
0010
,
1000
1000
0100
0010
0001
0000
0010
0100
,
1000
0001
1000
0000
0011
0000
0001
0100
,
0100
0010
1000
0010
0100
0010
1000
0100
,
0010
0001
2000
0000
0200
0000
0000
0000
,
0000
0000
3300
0000
0000
0000
0100
0010
,
0001
0010
0001
0000
1000
0000
0000
0000
,
0001
0000
1000
0000
,
0001
0100
0100
0010
,
0010
1000
1000
0001
,
0001
0000
1000
0000
0001
0100
0001
0000
,
1000
0100
1000
0000
1000
0000
1000
0010
,
0100
0000
0001
0000
0100
0000
0000
0001
0000
0000
0100
0000
0000
0001
0000
0000
,
1000
0000
0000
0010
0000
0000
0100
0000
0000
0010
0000
0000
1000
0000
0100
0000
,
0010
0000
0001
0000
1000
0000
0000
0010
0000
0000
0100
0000
0000
0001
0000
0000
,
1000
0001
1000
0001
0100
0010
0010
0000
,
1000
0100
0001
0000
0100
1000
0010
0000
,
0010
1000
0100
0000
0001
0100
1000
0010
,
0001
0010
1000
0000
0001
0000
1000
0000
,
0001
1001
0110
1001
,
0110
0000
0000
0000
1001
0000
0000
0000
0001
0000
1000
0000
0001
0000
0000
1000
,
0000
0000
0010
0000
0010
0000
0000
0100
0000
0000
0001
0000
1000
0000
0010
0000
,
0010
1000
0100
0000
0100
1000
0001
1000
,
0010
0000
0100
0000
0001
1000
0010
0010
,
1000
0100
0010
0001
0010
0002
0003
1000
,
0001
0000
0100
0000
0100
0000
0000
0001
0000
0000
1000
0000
0010
0000
0010
0000
,
1000
0100
1000
0001
0010
0000
1100
0000
,
0010
0000
0101
0000
0100
0010
1000
1000
,
0010
0100
0001
1000
0001
0010
0100
0000
,
1001
0000
0000
0000
0001
0000
1000
0000
0001
1000
0000
0001
0000
0000
1000
0000
,
0001
0100
0010
0000
1100
0000
0010
1000
,
0100
1000
0001
0000
0011
0000
0010
0100
,
1000
0010
0100
0000
0101
0000
0001
1000
,
0010
0010
1000
0100
0010
0001
1000
0001
,
0100
0001
0010
0000
0001
0100
0010
1000
,
1000
0001
0100
0001
0100
0000
0010
1000
,
0001
0100
0001
0010
0001
0000
1000
0100
,
1000
0000
0001
0000
0000
0010
0000
0000
,
0100
1000
0010
0000
0010
0000
1000
0100
,
1000
0000
0001
0000
0100
0000
0001
0000
0001
0000
0000
0010
0000
0000
0001
0000
,
0001
0000
1000
0001
0100
0000
0001
1000
,
0010
1000
0200
0000
0300
0000
0000
0000
,
0000
0000
0000
0000
;
//---------------dance-single - ----------------
#NOTES:
     dance-single:
     :
     Hard:
     8:
     0.000,0.000,0.000,0.000,0.000:
0000
0000
0000
0000
,
0000
0000
0000
0000
,
0000
0000
0000
0000
,
0000
0000
0000
0000
0000
0000
0000
0000
0000
0000
0000
0000
0001
1000
0000
0001
,
0000
0100
0000
0001
0000
0000
1000
0000
0100
0000
0000
1000
0000
0000
0010
0000
,
1000
0000
0000
0000
0010
0000
0100
0000
0010
0000
0000
0010
1000
0000
0100
0000
,
1000
0000
0001
0010
0001
0000
0100
0001
,
0100
0001
1000
0000
0100
0010
0001
0010
,
0100
0000
1000
0000
0101
0000
0001
1000
,
0010
0000
1000
0000
0100
0000
0000
0000
0011
0000
0000
0001
0100
0000
0010
0000
,
0100
0000
0001
1000
0100
0000
1000
0010
,
0100
0000
0010
0000
1000
0000
0000
0000
1010
0000
0000
0010
0100
0000
0001
0000
,
0100
0000
0001
0000
0001
0000
1000
0000
0010
0000
0000
0010
1000
0000
0100
0000
,
1100
0000
0000
0000
1000
0000
0001
0000
0010
0000
0000
0010
0001
0000
0100
0000
,
0101
0001
1000
0010
0010
1000
0100
1000
,
1001
0000
0001
0100
0010
0010
0100
0001
,
0010
0000
0100
0000
1000
0000
0010
0000
0100
0000
0000
0100
0010
0000
1000
0000
,
0110
0000
0000
0000
0100
0000
0001
0000
0010
0000
0000
0010
0001
0000
1000
0000
,
0010
0000
0100
0000
0001
0000
0010
0000
0100
0000
0000
0100
1000
0000
0010
0000
,
0100
0000
0100
0010
1000
1000
0001
0100
,
0010
0010
0100
0000
0011
0000
0001
0100
,
0010
0000
1000
0000
1000
0000
0000
0000
1010
0000
0000
0010
0100
0000
0001
0000
,
0010
0000
0100
0000
1000
0000
0000
0000
0101
0000
0000
0001
0100
0000
0010
0000
,
0010
1000
0100
1000
0001
1000
0010
0100
,
0001
0100
0020
0000
0000
0000
0000
0000
,
0000
0030
0000
0010
,
1000
0200
0000
0000
0001
0000
0000
0000
,
1300
0000
0000
0000
0001
0000
0100
0100
,
0001
0000
0000
0000
1000
0000
0000
0010
0000
0000
1000
0000
0000
0100
0000
0000
,
1000
0000
0000
0000
0001
0000
0000
0100
0000
0000
0001
0000
0000
0010
0000
0000
,
0001
0000
0200
0000
0010
0000
0000
1000
0000
0000
0010
0000
0000
0301
0000
0000
,
0100
0000
0000
0000
0001
0000
0000
0010
0000
0000
0100
0000
1000
0000
0010
0000
,
0100
0000
0001
0000
1000
0000
0001
0010
0000
0010
0001
0000
0100
0000
0100
0000
,
0010
0000
0000
0000
1000
0000
0100
1000
0000
1000
0100
0000
1000
0000
0001
0000
,
0010
0000
0001
0000
0100
0000
0000
0100
0010
0000
1000
0000
0010
1000
0000
0000
,
0001
0100
0010
1000
0100
1000
0001
0000
,
1100
0000
0001
0001
1000
1000
0010
0010
,
0100
0010
1000
0001
0100
0010
1000
0100
,
0010
0001
0100
0001
0010
0100
1000
0010
,
0100
0001
0200
0000
0300
0000
0001
0000
,
1000
0000
0001
0000
0200
0000
0000
0000
0301
0000
0010
0000
0001
0100
0000
0010
,
0000
0000
1000
0000
1000
0000
0000
1000
0010
0000
0100
0000
0001
0000
0010
0000
,
0001
0000
0000
0000
0000
0000
0001
0000
0000
0000
0000
0000
0100
0000
0000
0000
0001
0000
0000
0000
0000
0100
0000
0000
0000
0000
0000
0000
0000
0000
0010
0000
0000
0000
0000
0000
1000
0000
0000
0000
0100
0000
0000
0000
0000
1000
0000
0000
,
0010
0000
0100
0000
0101
0000
0000
0001
0100
0000
0010
0000
1000
0000
1000
0000
,
0100
0000
0010
0000
0010
0000
0001
0000
0100
0000
0010
0000
1000
0000
0000
0001
,
0010
0000
0001
0000
0101
0000
0000
0100
0010
0000
1000
0000
0100
0000
0100
0000
,
1000
0000
0000
0000
0000
0000
1000
0000
0000
0000
0000
0000
0010
0000
0000
0000
0100
0000
0000
0000
0000
0010
0000
0000
1000
0000
0000
0000
0000
0000
0100
0000
0000
0000
0000
0000
1000
0000
0000
0000
0001
0000
0000
0000
0000
0010
0000
0000
,
0001
0100
0100
0010
1000
0100
0010
0001
,
1000
0001
1000
0010
0100
0001
1000
0001
,
2000
0000
0000
0000
0000
0000
3001
0000
0010
0001
0000
0000
0010
0000
0100
0000
0000
1000
0000
0000
0000
0010
0000
0000
,
0100
0000
0001
1000
0001
0000
0100
0000
0010
0000
0100
0000
0100
0000
0010
0000
,
0101
0000
0000
0000
0000
0000
1000
0000
0010
1000
0000
0000
0001
0000
0000
0010
0000
0000
0001
0000
0000
0100
0000
0000
,
0010
0000
0000
0010
0000
0000
1000
0000
0000
0100
0000
0000
1000
0000
0000
0000
0000
0000
0001
0000
0100
0001
0000
0001
,
0100
0010
1000
0000
1100
0000
0100
0010
,
0001
0000
0100
0001
0100
0000
0010
0000
1000
0000
1000
0010
1000
0000
0010
0000
,
0100
0100
0001
1000
0010
0100
0100
0010
,
1000
0000
0000
0100
0000
0000
0010
0000
0001
0010
0000
0010
0001
0000
0000
0100
0000
0000
0010
0000
0000
1000
0000
0000
,
0001
0000
0010
0000
0000
0000
0000
0000
0001
0000
0000
0001
0010
0000
0010
0000
,
0001
0000
1000
0000
0010
0000
0100
0000
0001
0000
0000
1000
0010
0000
0101
0000
,
0000
0000
1100
0000
0000
0000
1000
0000
0100
0000
0000
1000
0010
0000
0010
0000
,
0100
0000
0000
0000
0000
0000
0001
0000
0000
0010
0000
0000
0001
0000
0100
0001
0000
0000
0100
0000
0000
0010
0000
0000
,
1000
0010
0200
0000
0300
0000
0000
0000
,
0000
0000
0000
0000
;
