#TITLE:ジレンマ;
#SUBTITLE:;
#ARTIST:ecosystem;
#TITLETRANSLIT:;
#SUBTITLETRANSLIT:;
#ARTISTTRANSLIT:;
#GENRE:;
#CREDIT:;
#BANNER:jirema_b.jpg;
#BACKGROUND:jirenma-bg.png;
#LYRICSPATH:;
#CDTITLE:;
#MUSIC:jirenma.mp3;
#OFFSET:-0.027000;
#SAMPLESTART:30.287001;
#SAMPLELENGTH:17.219999;
#SELECTABLE:YES;
#BPMS:0.000000=182.000000
;
#STOPS:
;
#BGCHANGES:;
#KEYSOUNDS:;
#ATTACKS:;

//---------------dance-single - ----------------
#NOTES:
     dance-single:
     :
     Hard:
     13:
     0.599746,0.670258,0.516410,0.353837,0.000000,439.000000,385.000000,54.000000,37.000000,0.000000,0.000000,0.599746,0.670258,0.516410,0.353837,0.000000,439.000000,385.000000,54.000000,37.000000,0.000000,0.000000:
0000
0000
0000
0000
,
0000
0000
0000
0000
,
0000
0000
0000
0000
,
0000
0000
0000
0000
,
0000
0000
0000
0000
,
0000
0000
0000
0000
,
0000
0000
0000
0000
,
0000
0000
0000
0000
,
0010
1000
0001
0100
0000
0010
1010
0000
,
0100
0010
1000
0100
0000
0010
0011
0000
,
0001
0100
0001
0000
0010
1000
0010
0000
,
1000
0010
0100
0010
1000
0001
0100
0000
,
0010
0100
0001
0100
0000
0010
1010
0000
,
0100
0010
0100
0001
0000
1000
1010
0000
,
0100
0001
0100
0010
1000
0001
0100
0010
,
0100
0001
0010
0100
1000
0100
0010
0000
,
0001
0000
0001
0100
0000
0100
0010
0000
,
0010
1000
0010
0100
0001
0100
0001
0100
,
0102
0000
0000
0003
2000
0000
0000
3000
,
0020
0000
0000
0030
0100
0101
0000
0000
,
0010
1000
0010
1000
0000
0100
0101
0000
,
0001
0010
0001
0010
0000
1000
1100
0000
,
0001
0010
0100
0010
0001
1000
0010
0000
,
2010
0010
0010
3010
,
0201
0000
0001
0300
0101
0000
2001
0000
,
0001
0010
0010
3010
,
0200
0320
2030
3002
,
0010
0000
1000
0000
0010
0000
0100
0003
,
0200
0320
2030
3200
,
0010
0010
0001
0310
,
0001
0010
0001
0010
0100
1000
0100
1000
,
0200
0010
0010
0310
,
0012
0100
1003
2010
,
0100
0100
0001
3001
,
0012
0103
2010
0001
,
0010
0000
0001
0000
3001
0000
0010
0100
,
0010
0000
0010
1000
0000
1000
0002
0000
,
0100
0100
1000
0103
,
0010
1000
0020
0000
0130
0001
0200
0000
,
0310
1000
0010
0100
0001
0100
0010
0100
,
0001
1000
0100
1000
0100
0010
0001
1000
,
0010
0100
0000
0101
0000
0010
0100
0010
,
1000
0001
0000
0220
0000
0000
0330
0000
,
0001
0100
0010
0100
0001
1000
0100
0001
,
0100
1000
0010
0100
0010
1000
0001
0100
,
0101
0000
0001
0000
0100
0000
0100
0110
,
0000
2020
0000
3030
0100
0001
0100
0000
,
0010
0100
0001
0010
0100
0010
0001
1000
,
0100
0010
0100
1000
0001
0100
0010
1000
,
0010
0100
0000
0101
0000
0010
1000
0100
,
0010
0001
0000
0101
0000
1000
1001
0000
,
0010
0100
0010
0100
0001
1000
0001
1000
,
0001
0100
0010
1000
0100
0010
0100
1000
,
0200
0320
0032
2003
,
3020
0230
0302
0103
,
0120
1000
0100
0100
,
0001
0100
1000
1030
,
0201
0001
0010
1000
,
0010
0001
0001
0301
,
2010
0010
0001
0100
,
0001
0001
0010
3010
,
0102
0100
0010
1000
,
0010
0100
1003
0101
,
1010
0000
0100
0000
0010
0000
0100
0001
,
0000
0101
0000
0010
1000
0010
1000
0010
,
1010
0000
0001
0000
0101
0000
1000
1010
,
0000
1010
0000
0100
0001
1000
0010
0000
,
0100
0010
1000
0001
0100
0010
0100
0001
,
0010
0100
1000
0100
1000
0010
0100
0001
,
1000
1100
0000
0010
0001
0011
0000
0001
,
1000
1010
0000
0100
0110
0000
1000
1010
,
0000
0100
0001
0101
0000
0010
1000
1100
,
0000
0010
0011
0000
0010
1010
0000
0100
,
0001
0011
0000
0001
0010
0110
0000
1000
,
1001
0000
0010
0110
0000
0010
1000
1010
,
0000
0100
0001
0011
0000
1000
1001
0000
,
0010
1010
0000
0100
0001
0101
0000
0010
,
1000
1000
0001
0001
0100
0100
0010
1001
;

//---------------dance-single - Copied from----------------
#NOTES:
     dance-single:
     Copied from:
     Medium:
     10:
     0.486355,0.633021,0.573789,0.372963,0.000000,356.000000,296.000000,60.000000,39.000000,0.000000,0.000000,0.486355,0.633021,0.573789,0.372963,0.000000,356.000000,296.000000,60.000000,39.000000,0.000000,0.000000:
0000
0000
0000
0000
,
0000
0000
0000
0000
,
0000
0000
0000
0000
,
0000
0000
0000
0000
,
0000
0000
0000
0000
,
0000
0000
0000
0000
,
0000
0000
0000
0000
,
0000
0000
0000
0000
,
0100
0000
0100
0002
0000
0000
0003
0000
,
1000
0000
1000
0020
0000
0000
0030
0000
,
0100
0110
0010
1010
,
1000
0010
0000
0202
0000
0000
0303
0000
,
0010
0000
0010
0200
0000
0000
0300
0000
,
0001
0000
0001
0200
0000
0000
0300
0000
,
0010
1000
0010
0000
0100
0001
0100
0000
,
0010
0100
0010
0000
1000
0001
1000
0000
,
0020
0000
0000
0230
0000
0000
0302
0000
,
0013
0011
1000
1001
,
0120
0100
1000
1000
,
0100
0130
2002
3003
,
0010
0000
0010
0200
0000
0000
0300
0000
,
0001
0000
0001
0200
0000
0000
0300
0000
,
0001
1000
0001
1000
,
0110
0001
0100
0001
,
1001
0010
1010
0101
,
0001
1000
0100
0010
,
0012
0100
0013
1001
,
0100
0010
1000
0001
,
1010
1010
0101
0101
,
0010
1000
0010
0100
,
0001
0010
0001
0000
0100
1000
0100
0000
,
0110
0001
1000
0010
,
1001
0100
0010
1010
,
0100
0100
0001
0001
,
0110
0100
1010
0100
,
0010
0000
1000
0000
0001
0000
0100
0010
,
0200
0000
0000
0320
0000
0030
2002
0000
,
0000
0000
0000
0000
0000
3003
0000
0000
,
0010
1010
0100
0101
,
2010
3010
0201
0301
,
1020
1030
0201
0301
,
0010
0100
0000
2020
0000
3030
0000
0000
,
0100
0001
0000
0202
0000
0000
0303
0000
,
0010
1000
0010
0000
0100
0001
0100
0000
,
0010
0100
0010
0100
0001
1000
0001
1000
,
0020
0000
0000
0000
0130
0000
0000
0110
,
0000
2002
0000
0000
3003
0000
1001
0000
,
0010
0100
0001
0101
,
0010
1000
0010
0110
,
0001
0010
0100
1001
,
0010
0001
0000
2002
0000
0000
3003
0000
,
0010
1000
0010
1000
0001
0100
0001
0000
,
1000
0010
1000
0010
0100
0001
0100
0000
,
0012
0010
0010
0010
,
1000
1000
1000
1003
,
0100
0110
1000
0001
,
0010
0110
0010
1000
,
0001
0101
0010
1000
,
0010
0101
0010
0100
,
0010
1010
0001
1000
,
0010
1010
0100
0001
,
1000
0101
0010
1000
,
0010
0101
0010
0101
,
1010
0000
0100
0000
0010
0000
0100
0001
,
0000
2002
0000
0000
0000
3003
0000
0000
,
2020
0000
3030
0000
0101
0000
0000
1010
,
0000
2020
0000
0000
0000
3030
0000
0000
,
1000
0010
1000
0000
0100
0010
0100
0000
,
0001
0010
0001
0000
1000
0010
1000
0001
,
1000
0100
0000
0010
0001
0010
0000
0001
,
1000
0010
0000
1000
1001
0000
0010
0100
,
0000
1000
0001
0100
0000
0010
1000
0100
,
0000
0010
0011
0000
0001
1000
0000
0100
,
0001
0010
0000
0001
1000
0100
0000
0001
,
1001
0000
0010
0100
0000
0010
1000
0010
,
0000
0100
0001
0010
0000
0100
0110
0000
,
0001
1001
0000
1000
0001
1001
0000
0010
,
0100
0001
0100
0001
1000
0010
1000
0010
;

//---------------dance-single - Copied from Copied f----------------
#NOTES:
     dance-single:
     Copied from Copied f:
     Easy:
     6:
     0.278698,0.520475,0.219953,0.420779,0.000000,204.000000,181.000000,23.000000,44.000000,0.000000,0.000000,0.278698,0.520475,0.219953,0.420779,0.000000,204.000000,181.000000,23.000000,44.000000,0.000000,0.000000:
0000
0000
0000
0000
,
0000
0000
0000
0000
,
0000
0000
0000
0000
,
0000
0000
0000
0000
,
0000
0000
0000
0000
,
0000
0000
0000
0000
,
0000
0000
0000
0000
,
0000
0000
0000
0000
,
1000
1000
0010
0010
,
0100
0100
0001
0001
,
0020
0000
2030
0000
,
3002
0000
2003
0000
,
3010
0010
0100
0100
,
0001
0001
1000
1000
,
0020
0000
0230
0000
,
0302
0000
2003
0000
,
3010
0010
0100
0100
,
0001
0001
0100
0100
,
0020
0000
0230
0000
,
0310
0000
1001
0000
,
0010
0010
1000
1000
,
0010
0010
0100
0100
,
0001
0001
0100
0100
,
0020
0000
0000
0000
,
2030
0000
0000
0000
,
3002
0000
0000
0000
,
0203
0000
0000
0000
,
0302
0000
0000
0000
,
0023
0000
0000
0000
,
0032
0000
0000
0000
,
0203
0000
0000
0000
,
0320
0000
0000
0000
,
2030
0000
0000
0000
,
3200
0000
0000
0000
,
0320
0000
0000
0000
,
0032
0000
0000
0000
,
0203
0000
0000
0000
,
0302
0000
0000
0000
,
2003
0000
0000
0000
,
3010
0010
0001
1001
,
0100
0100
0010
1001
,
2020
0000
0000
0000
0000
3030
0000
0000
,
0202
0000
0000
0000
0000
0303
0000
0000
,
0010
0010
0010
1010
,
0100
0100
0100
0101
,
0010
0000
0000
0000
0100
0000
0000
2002
,
0000
0000
3003
0000
,
0001
0100
0001
0100
,
0010
1000
0010
1000
,
0001
0100
0001
0100
,
0010
1000
0010
1000
,
0010
0010
0100
0100
,
0010
0010
1000
1000
,
0002
0000
0000
0000
,
2003
0000
0000
3000
,
0220
0000
0000
0000
,
0000
0000
0000
0330
,
2002
0000
0000
0000
,
0000
0000
0000
3003
,
0010
0100
0010
1000
,
0001
0010
0100
0010
,
0001
0100
0010
1000
,
0010
0100
0001
0100
,
1001
0000
0000
0000
0110
0000
0000
1001
,
0000
2002
0000
0000
0000
3003
0000
0000
,
0020
0000
0030
0000
0200
0000
0000
0310
,
0000
0220
0000
0000
0000
0330
0000
0000
,
0001
0010
0001
0100
,
0010
1000
0010
0100
,
1000
1000
0000
0000
0010
0010
0000
0000
,
0100
0100
0000
0000
1001
0000
0010
0010
,
0000
0000
0100
0100
0000
0000
0001
0001
,
0000
0000
0011
0000
1000
1000
0000
0000
,
0001
0001
0000
0000
0100
0100
0000
0000
,
1001
0000
0100
0100
0000
0000
0001
0001
,
0000
0000
0100
0100
0000
0000
1010
0000
,
0001
0001
0000
0000
1000
1000
0000
0000
,
0101
0101
1001
1001
;

//---------------dance-single - Copied from Copied f----------------
#NOTES:
     dance-single:
     Copied from Copied f:
     Beginner:
     3:
     0.142081,0.446121,0.296458,0.114758,0.000000,104.000000,73.000000,31.000000,12.000000,0.000000,0.000000,0.142081,0.446121,0.296458,0.114758,0.000000,104.000000,73.000000,31.000000,12.000000,0.000000,0.000000:
0000
0000
0000
0000
,
0000
0000
0000
0000
,
0000
0000
0000
0000
,
0000
0000
0000
0000
,
0000
0000
0000
0000
,
0000
0000
0000
0000
,
0000
0000
0000
0000
,
0000
0000
0000
0000
,
1000
0000
0000
0000
,
0010
0000
0000
0000
,
0100
0000
0000
0000
,
0001
0000
0000
0000
,
1000
0000
0000
0000
,
0010
0000
0000
0000
,
0100
0000
0000
0000
,
0001
0000
0000
0000
,
0010
0000
0000
0000
,
1000
0000
0000
0000
,
0010
0000
0000
0000
,
0001
0000
0000
0000
,
0100
0000
0000
0000
,
0010
0000
0000
0000
,
1000
0000
0000
0000
,
0002
0000
0000
0000
,
0000
0000
0000
0000
,
0000
0000
0000
0000
,
0000
0000
0000
0000
,
0203
0000
0000
0000
,
0000
0000
0000
0000
,
0000
0000
0000
0000
,
0000
0000
0000
0000
,
0320
0000
0000
0000
,
0000
0000
0000
0000
,
0000
0000
0000
0000
,
0000
0000
0000
0000
,
2030
0000
0000
0000
,
0000
0000
0000
0000
,
0000
0000
0000
0000
,
0000
0000
0000
0000
,
3010
0000
0000
0000
,
1010
0000
0000
0000
,
0100
0000
0000
0000
,
0101
0000
0000
0000
,
0010
0000
0000
0000
,
1001
0000
0000
0000
,
0010
0000
0000
0000
,
0101
0000
0000
0000
,
1000
0000
0000
0000
,
0110
0000
0000
0000
,
0100
0000
0000
0000
,
0101
0000
0000
0000
,
0010
0000
0000
0000
,
0110
0000
0000
0000
,
0100
0000
0000
0000
,
1100
0000
0000
0000
,
2002
0000
0000
0000
,
0000
0000
0000
0000
,
0000
0000
0000
0000
,
0000
0000
0000
3003
,
0010
0000
0100
0000
,
0001
0000
0100
0000
,
0010
0000
1000
0000
,
0010
0000
0001
0000
,
2002
0000
0000
0000
,
0000
0000
0000
0000
0000
3003
0000
0000
,
0220
0000
0330
0000
,
0000
0220
0000
0000
0000
0330
0000
0000
,
0001
0000
0001
0000
,
1000
0000
1000
0000
,
0101
0000
0101
0000
,
0101
0000
1001
1010
,
0000
1010
0000
1010
,
0000
0110
1001
0000
,
0101
0000
0101
0000
,
1001
0101
0000
0101
,
0000
0101
0000
0101
,
1001
0000
0110
0000
,
0100
0100
0100
1001
;

//---------------dance-double - ----------------
#NOTES:
     dance-double:
     :
     Hard:
     14:
     0.601113,0.671333,0.525973,0.372963,0.000000,440.000000,385.000000,55.000000,39.000000,0.000000,0.000000,0.601113,0.671333,0.525973,0.372963,0.000000,440.000000,385.000000,55.000000,39.000000,0.000000,0.000000:
  // measure 0
00000000
00000000
00000000
00000000
,  // measure 1
00000000
00000000
00000000
00000000
,  // measure 2
00000000
00000000
00000000
00000000
,  // measure 3
00000000
00000000
00000000
00000000
,  // measure 4
00000000
00000000
00000000
00000000
,  // measure 5
00000000
00000000
00000000
00000000
,  // measure 6
00000000
00000000
00000000
00000000
,  // measure 7
00000000
00000000
00000000
00000000
,  // measure 8
00000001
00000010
00000100
00001000
00000000
00010100
00011000
00000000
,  // measure 9
00001000
00100000
01000000
10000000
00000000
00100000
01010000
00000000
,  // measure 10
00010000
01000000
00010000
00000000
00100000
00001000
00100000
00000000
,  // measure 11
00001000
00000100
00000001
00000010
00000100
00001000
00000001
00000000
,  // measure 12
00000010
00010000
00000100
00010000
00000000
00001000
01001000
00000000
,  // measure 13
10000000
00100000
01000000
00010000
00000000
00100000
00101000
00000000
,  // measure 14
00010000
00100000
01000000
10000000
00100000
01000000
00010000
00100000
,  // measure 15
00001000
00010000
00000100
00000010
00000001
00000100
00000010
00000000
,  // measure 16
00001000
00000000
00001000
00000100
00000000
00000100
00000010
00000000
,  // measure 17
00000010
00000001
00000010
00000001
00000100
00000001
00000100
00000001
,  // measure 18
00002001
00000000
00000000
00003000
00000200
00000000
00000000
00000300
,  // measure 19
00020000
00000000
00000000
00030000
00010000
01010000
00000000
00000000
,  // measure 20
00100000
10000000
00100000
10000000
00000000
01000000
01010000
00000000
,  // measure 21
00010000
10000000
00010000
10000000
00000000
00100000
00101000
00000000
,  // measure 22
01000000
00010000
00000100
00010000
01000000
00010000
00100000
00000000
,  // measure 23
00102000
00100000
00100000
00103000
,  // measure 24
00002010
00000000
00000010
00003000
00001001
00000000
00000201
00000000
,  // measure 25
00000001
00000010
00000010
00000310
,  // measure 26
00002000
00000000
00003200
00000000
00020300
00030000
02000000
00000000
,  // measure 27
10000000
10000000
10000000
13000000
,  // measure 28
02000000
03200000
00320000
00032000
,  // measure 29
00000010
00000001
00000100
00003010
,  // measure 30
00000001
00000010
00000001
00000010
00000100
00001000
00000100
00001000
,  // measure 31
00002000
00000100
00000100
00003100
,  // measure 32
00120000
01000000
10030000
20100000
,  // measure 33
01000000
00010000
00100000
30010000
,  // measure 34
00102000
00003100
00000012
00000100
,  // measure 35
00000100
00000000
00001000
00000000
00001003
00000000
00000010
00010000
,  // measure 36
00000010
00000000
00001000
01000000
00000000
01000000
00020000
00000000
,  // measure 37
00100000
01000000
10000000
01030000
,  // measure 38
00100000
10000000
00200000
00000000
01300000
00001000
02000000
00000000
,  // measure 39
03001000
00010000
00000100
00000010
00000001
00000100
00000010
00010000
,  // measure 40
00001000
00100000
00010000
01000000
00001000
00010000
00000100
00000010
,  // measure 41
00000001
00000100
00000000
00000101
00000000
00000010
00001000
00000010
,  // measure 42
00001000
00000100
00000000
00022000
00000000
00000000
00033000
00000000
,  // measure 43
00010000
00100000
00010000
00100000
01000000
10000000
01000000
10000000
,  // measure 44
00010000
00100000
00001000
00010000
00000100
00000010
00000001
00001000
,  // measure 45
00001010
00000000
00010000
00000000
01000000
00000000
01000000
01100000
,  // measure 46
00000000
20020000
00000000
30030000
00100000
00001000
00100000
00000000
,  // measure 47
00001000
00010000
00001000
00100000
00010000
01000000
00100000
10000000
,  // measure 48
00010000
01000000
00100000
01000000
00010000
00100000
00001000
00010000
,  // measure 49
00000100
00000100
00000000
00001001
00000000
00000100
00000001
00000010
,  // measure 50
00000100
00001000
00000000
00011000
00000000
00010000
00110000
00000000
,  // measure 51
00100000
00001000
00100000
00001000
00010000
00000100
00010000
00000100
,  // measure 52
00001000
00000010
00001000
00000010
00000100
00000001
00000100
00000001
,  // measure 53
00000020
00000230
00002300
00023000
,  // measure 54
00230000
02300000
23000000
31000000
,  // measure 55
01200000
00001000
01000000
01000000
,  // measure 56
10000000
00001000
01000000
01300000
,  // measure 57
00012000
00010000
00000100
00000010
,  // measure 58
00100000
00010000
00000010
00003010
,  // measure 59
00120000
00000100
00100000
00001000
,  // measure 60
00100000
00000100
00100000
00031000
,  // measure 61
00002100
00010000
00000100
00100000
,  // measure 62
00000100
00010000
00003010
00000101
,  // measure 63
00001010
00000000
00010000
00000000
00001000
00000000
01000000
00010000
,  // measure 64
00000000
01010000
00000000
00100000
10000000
00100000
10000000
00100000
,  // measure 65
10100000
00000000
00010000
00000000
01010000
00000000
00010000
00011000
,  // measure 66
00000000
00011000
00000000
00001000
00000100
00000001
00000010
00000000
,  // measure 67
00000010
00010000
00000100
00010000
00001000
00100000
01000000
10000000
,  // measure 68
00010000
00100000
10000000
00100000
00010000
01000000
00100000
10000000
,  // measure 69
00010000
00110000
00000000
00100000
00001000
00101000
00000000
00000100
,  // measure 70
00000010
00000011
00000000
00001000
00001100
00000000
00001000
00101000
,  // measure 71
00000000
01000000
00010000
01010000
00000000
00100000
10000000
11000000
,  // measure 72
00000000
00100000
00110000
00000000
00001000
00101000
00000000
00010000
,  // measure 73
00000100
00001100
00000000
00000010
00000001
00001001
00000000
00001000
,  // measure 74
00011000
00000000
00010000
00110000
00000000
00100000
10000000
10100000
,  // measure 75
00000000
01000000
00010000
00110000
00000000
00010000
00011000
00000000
,  // measure 76
00000010
00001010
00000000
00000100
00000001
00000101
00000000
00000010
,  // measure 77
00000100
00000100
00001000
00001000
00100000
00100000
00010000
20020000
,  // measure 78
30030000
00000000
00000000
00000000
;
