#TITLE:SENZURI;
#ARTIST:Jonny;
#FILE:񂸂.mp3;
#BPM:90.000;
#GAP:80;
#SAMPLESTART:0.000;
#SAMPLELENGTH:21.000;
#CDTITLE:cdtitle.png;
#DISPLAYBPM:90;

#FREEZE:367.000=2000.000,495.000=1300.000;
#CHANGEBPM:459.500=-90.000,479.000=90.000;
#SINGLE:MANIAC:14:
00000000
00000000
00000000
00000000
[804020408020608020806040]
[208020406080204020806040]
[208060802040804020806020]
[804060208040602080402040]
3!60202020
20202030
7!40808080
80808070
B!60404040
404040B0
A!20808080
808080A0
(4060208404803070)
(2060842406207026)
(80B0462608604260)
(B0A0248060B08626)
(80A0620824090640)
(60104286068240B0)
{8000600020000000800040002000000000004000800020006!6000000060002!2020}
(0000901026070A08)
(4262404868480624)
(2030808420308620)
(4802620682070428)
(0682402682403707)
(3080208!802!2A000000)
00000000
00000000
B!B0000000
B0000000
;
#SINGLE:ANOTHER:10:
00000000
00000000
00000000
00000000
60802080
20406020
80406020
80402080
B0606060
60606060
70404040
40404040
30202020
20202020
B0604060
40604060
84204626
40802680
64208428
62806240
48608262
80406824
{6000000000000000B0000000000000002000000080000000400000000000B!B0B0}
(0000804020602040)
80862426
80204082
80682412
90628070
(308040002!22000000)
00000000
00000000
B!B0000000
B0000000
;
#SINGLE:BASIC:9:
00000000
00000000
00000000
00000000
80008000
20002000
60006000
40004000
20202020
20202000
80808080
80808000
60606060
60606000
40404040
4040B000
A!80000080
3!20000020
7!80000080
B!40000040
A!80000080
3!20000020
(A!800000008000000A!A)
A0608020
10802060
90608020
10802080
B0802080
B060A000
00000000
00000000
B!B0000000
B0000000
;
#SINGLE:BEGINNER:4:
00000000
00000000
00000000
00000000
20000000
40000000
20000000
40000000
60000000
20000000
80000000
20000000
60000000
40000000
80000000
B0000000
20000000
20000000
80000000
80000000
B0000000
B0000000
(A000000000000008!8)
80606060
00202020
00606060
00404040
00808080
(8000000000000000)
(0000000000000000)
00000000
2!20000000
20000000
;
#DOUBLE:SMANIAC:14:
00000000
00000000
00000000
00000000
[804020800020608000600060]
[000000000060008060200060]
[000000000060008020406080]
[006000000000000000608020]
6!60600000
00006!6060
8!80A!201!40B!60
9!80806!6060
00000000
00006!6060
8!80A!201!40B!60
3!20200000
00006082
46806000
00608026
48268060
00000000
06284642
{6000000000000000000000000000000000000000000000006000000080000000}
(00006!609064201090)
(0000000000000000)
(90106!609002000060)
(20706!6090060080B0)
(20606!606024806000)
`000000000000000000000000000000000000000000000000000000000000000000000000000000000000000000000000000000000000000000000000000000000000000000000000000000000000000000000000000000000000000000000000'
[000000000000000000000000]
00000000
4!40000000
40000000
:
00000000
00000000
00000000
00000000
[000000004000000040004000]
[208060408000400000004000]
[208020408000400000000000]
[400020408020602040000000]
004!407!809!60
3!20A!80804!40
40000000
004!40402!20
A!809!603!20A!80
7!401!20204!40
40000000
004!407!809!60
96280400
00040286
28020400
00000402
86284628
40000000
{0000000040000000800000006000000020000000400000000000000000004!4040}
(0000000000000000)
(10904!401042409010)
(0000000040403080)
(4000000040204000)
(40800040000040A0)
`B000000000000000000000009000000000000000000000008000000000004000000000002!200000000000000000000000200000000000000000000000000000000000000000000000000000000000000000000000000000000000000000000000'
[000000000000000000000000]
00000000
00000000
00000000
;
