#TITLE:せんずり;
#SUBTITLE:;
#ARTIST:じょにー;
#TITLETRANSLIT:SENZURI;
#SUBTITLETRANSLIT:;
#ARTISTTRANSLIT:Jonny;
#CREDIT:;
#BANNER:񂸂.png;
#BACKGROUND:񂸂-bg.png;
#LYRICSPATH:;
#CDTITLE:cdtitle.png;
#MUSIC:񂸂.mp3;
#OFFSET:-0.080;
#SAMPLESTART:0.000;
#SAMPLELENGTH:21.000;
#SELECTABLE:YES;
#DISPLAYBPM:90.000;
#BPMS:0.000=90.000,114.875=-90.000,119.750=90.000;
#STOPS:91.750=2.000
,123.750=1.300
;
#BGCHANGES:0.000=񂸂.avi=1.000=1=1=0,
99999=-nosongbg-=1.000=0=0=0 // don't automatically add -songbackground-
;

//---------------dance-single - ----------------
#NOTES:
     dance-single:
     :
     Hard:
     14:
     0.415,0.553,0.311,0.115,0.501:
0000
0000
0000
0000
,
0000
0000
0000
0000
,
0000
0000
0000
0000
,
0000
0000
0000
0000
,
001M
1000
0100
1000
0010
0100
M001
0010
0100
0010
0001
1000
,
010M
0010
0100
1000
0001
0010
010M
1000
0100
0010
0001
1000
,
01M0
0010
0001
0010
0100
1000
0M10
1000
0100
0010
0001
0100
,
001M
1000
0001
0100
0010
1000
0M01
0100
0010
1000
0100
1000
,
0102
0100
0100
0100
,
0100
0100
0100
M1M3
,
2010
0010
0010
0010
,
0010
0010
0010
3M1M
,
1002
1000
1000
1000
,
1000
1000
1000
1MM3
,
0210
0010
0010
0010
,
0010
0010
0010
M31M
,
1000
0000
0001
0000
0100
0000
0010
1000
0000
1000
0010
0000
0101
0000
1010
0000
,
0100
0000
0001
0000
0010
1000
0100
1000
0000
0001
0100
0000
1010
0000
0100
0001
,
0010
0000
1001
0000
1000
0001
0100
0001
0000
0010
0001
0000
1000
0100
0001
0000
,
1001
0000
0110
0000
0100
1000
0010
0000
0001
0000
1001
0000
0010
0001
0100
0001
,
0010
0000
0110
0000
0001
0100
0000
0010
0100
1000
0000
0011
0000
0001
1000
0000
,
0001
0000
1100
0000
1000
0100
0010
0001
0000
0001
0010
0100
1000
0000
1001
0000
,
0010
0000
0001
0000
0100
0000
0000
0000
0010
0000
1000
0000
0100
0000
0000
0000
0000
0000
1000
0000
0010
0000
0100
0000
0002
0000
0000
0000
0003
0000
M2MM
0300
,
MMMM
MMMM
0000
0000
0011
0000
1100
0000
0100
0001
0000
1010
0000
0110
0000
0010
,
1000
0100
0001
0100
1000
0000
1000
0010
0001
0010
1000
0010
0000
0001
0100
1000
,
0100
0000
0101
0000
0010
0000
0010
1000
0100
0000
0101
0000
0010
0001
0100
0000
,
1000
0010
0000
0100
0001
0100
0000
0001
0010
0100
0000
1010
0000
1000
0100
0010
,
0000
0001
0010
0100
1000
0000
0100
0001
0010
0100
1000
0000
0101
1010
0000
1010
,
0101
0000
0010
0000
0100
0000
0020
0000
0200
0330
0000
0000
MMMM
0000
MMMM
0000
,
MMMM
MMMM
MMMM
MMMM
MMMM
MMMM
MMMM
MMMM
,
MMMM
MMMM
MMMM
MMMM
MMMM
MMMM
MMMM
MMMM
,
2002
0000
0000
0000
,
3003
0000
0000
0000
;

//---------------dance-single - ----------------
#NOTES:
     dance-single:
     :
     Medium:
     10:
     0.235,0.313,0.127,0.058,0.012:
0000
0000
0000
0000
,
0000
0000
0000
0000
,
0000
0000
0000
0000
,
0000
0000
0000
0000
,
0001
0010
0100
0010
,
0100
1000
0001
0100
,
0010
1000
0001
0100
,
0010
1000
0100
0010
,
1001
0001
0001
0001
,
0001
0001
0001
0001
,
1010
1000
1000
1000
,
1000
1000
1000
1000
,
0101
0100
0100
0100
,
0100
0100
0100
0100
,
1001
0001
1000
0001
,
1000
0001
1000
0001
,
0010
1000
0100
0000
1000
0001
0100
0001
,
1000
0000
0010
0000
0100
0001
0010
0000
,
0001
1000
0100
0000
0010
1000
0100
0010
,
0001
0100
0010
0000
0001
0100
1000
0000
,
1000
0010
0001
0000
0010
0100
0001
0100
,
0010
0000
1000
0000
0001
0010
0100
1000
,
0001
0000
0000
0000
0000
0000
0000
0000
1001
0000
0000
0000
0000
0000
0000
0000
0100
0000
0000
0000
0010
0000
0000
0000
1000
0000
0000
0000
0000
0000
2002
3003
,
0000
0MM0
0000
0000
0010
0000
1000
0000
0100
0000
0001
0000
0100
0000
1000
0000
,
0010
0000
0010
0001
0100
1000
0100
0001
,
0010
0000
0100
0000
1000
0000
0010
0100
,
0010
0000
0001
0010
0100
1000
1100
0100
,
0011
0000
0001
0100
0010
0000
1010
0000
,
0101
0000
0010
0000
1000
0000
0000
0000
0200
0300
0000
0000
MMMM
0000
M00M
0000
,
M00M
M00M
M00M
M00M
M00M
M00M
M00M
M00M
,
M00M
M00M
M00M
M00M
M00M
M00M
M00M
MMMM
,
2002
0000
0000
0000
,
3003
0000
0000
0000
;

//---------------dance-single - ----------------
#NOTES:
     dance-single:
     :
     Easy:
     9:
     0.155,0.221,0.184,0.127,0.006:
0000
0000
0000
0000
,
0000
0000
0000
0000
,
0000
0000
0000
0000
,
0000
0000
0000
0000
,
0010
0000
0010
0000
,
0100
0000
0100
0000
,
0001
0000
0001
0000
,
1000
0000
1000
0000
,
0100
0100
0100
0100
,
0100
0100
0100
0000
,
0010
0010
0010
0010
,
0010
0010
0010
0000
,
0001
0001
0001
0001
,
0001
0001
0001
0000
,
1000
1000
1000
1000
,
1000
1000
1001
0000
,
0120
0000
0000
0030
,
0201
0000
0000
0300
,
1020
0000
0000
0030
,
2001
0000
0000
3000
,
0120
0000
0000
0030
,
0201
0000
0000
0300
,
0120
0000
0000
0000
0000
0000
0000
0000
0030
0000
0000
0000
0000
0000
0000
0220
,
0330
0001
0010
0100
,
1100
0010
0100
0001
,
0011
0001
0010
0100
,
1100
0010
0100
0010
,
1001
0010
0100
0010
,
1001
0001
0110
MMMM
,
0000
MMMM
0000
MMMM
,
0000
MMMM
0000
MMMM
,
2002
0000
0000
0000
,
3003
0000
0000
0000
;

//---------------dance-single - ----------------
#NOTES:
     dance-single:
     :
     Beginner:
     4:
     0.071,0.129,0.046,0.023,0.040:
0000
0000
0000
0000
,
0000
0000
0000
0000
,
0000
0000
0000
0000
,
0000
0000
0000
0000
,
0100
0000
0000
0000
,
1000
0000
0000
0000
,
0100
0000
0000
0000
,
1000
0000
0000
0000
,
0001
0000
0000
0000
,
0100
0000
0000
0000
,
0010
0000
0000
0000
,
0100
0000
0000
0000
,
0001
0000
0000
0000
,
1000
0000
0000
0000
,
0010
0000
0000
0000
,
1001
0000
0000
0000
,
0100
0000
0000
0000
,
0100
0000
0000
0000
,
0010
0000
0000
0000
,
0010
0000
0000
0000
,
1001
0000
0000
0000
,
1001
0000
0000
0000
,
0110
0000
0000
0000
0000
0000
0000
0000
0000
0000
0000
0000
0000
0000
0000
0020
,
0030
0001
0001
0001
,
0000
0100
0100
0100
,
0000
0001
0001
0001
,
0000
1000
1000
1000
,
0000
0010
0010
0010
,
0010
0000
0000
0000
0000
0000
0000
0000
0000
0000
0000
0000
00M0
00M0
0MMM
0MMM
,
0MMM
MMMM
0000
0000
0000
0000
0000
0000
0M00
0M00
MMM0
MMM0
MMM0
MMMM
MMMM
0000
,
0000
0000
0000
0000
,
0200
0000
0000
0000
,
0300
0000
0000
0000
;

//---------------dance-double - ----------------
#NOTES:
     dance-double:
     :
     Challenge:
     14:
     0.405,0.553,0.230,0.461,0.265:
00000000
00000000
00000000
00000000
,
00000000
00000000
00000000
00000000
,
00000000
00000000
00000000
00000000
,
00000000
00000000
00000000
00000000
,
00100000
10000000
01000000
00100000
00001000
01000000
00010000
00100000
00001000
00010000
00001000
00010000
,
00000100
00000010
00000001
00001000
00000010
00010000
00001000
00100000
00010000
01000000
00001000
00010000
,
00000100
00000010
00000100
00001000
00000010
00010000
00001000
00100000
01000000
10000000
00010000
00100000
,
00001000
00010000
00000100
00001000
00000010
00000100
00000001
00000100
00001000
00010000
00100000
01000000
,
00020000
00032000
00003020
00000032
,
00000203
00000320
00020030
00032000
,
00203000
02300000
23000000
30020000
,
00230000
00302000
00023000
00030200
,
00000320
00000032
00000203
00000320
,
00002030
00003200
00020300
00032000
,
00203000
02300000
23000000
30020000
,
02030000
03002000
00003020
00000032
,
00000013
00000001
00000100
00000010
00010000
00001000
00100000
01000000
,
10000000
00010000
00100000
00001000
00010000
00000100
00000010
00000001
,
00000100
00000010
00010000
00000100
00100000
00001000
01000000
00010000
,
10000000
00100000
01000000
00010000
00100000
00001000
00010000
00000100
,
00000010
00000001
00000100
00000010
00001000
00000001
00000100
00000010
,
00001000
00010000
01000000
00100000
10000000
00010000
10000000
01000000
,
00010000
00000000
00000000
00000000
00001000
00000000
00000000
00000000
00000010
00000000
00000000
00000000
00000001
00000000
00000000
00000000
00000100
00000000
00000000
00000000
00001000
00000000
00000000
00000000
00010000
00000000
00000000
00000000
00100000
00000000
MMMM2MMM
00003000
,
MMMMMMMM
MMMMMMMM
00000000
00000000
00020000
00000000
00130000
00000000
00010000
10000000
01000000
00000000
11000000
00000000
00110000
00000000
,
00001100
00000000
00000011
00000000
00002000
00000000
00003100
00000000
00001000
00000100
00001000
00000000
00000011
00000000
00001100
00000000
,
00110000
00000000
11000000
00000000
00020000
00000000
00130000
00000000
00001000
01000000
00001000
00000000
00000101
00000000
00010010
00000000
,
01001000
00000000
10100000
00000000
00020000
00000000
00130000
00000000
00001000
00010000
00000100
00000000
00101000
00000000
10010000
00000000
,
01001000
00000000
00010010
00000000
00020000
00000000
00031000
00000000
01000000
10000000
00100000
00000000
00011000
00000000
00000110
00000000
,
00001001
00000000
00000000
00000000
00000000
00000000
00000011
00000000
00000000
00000000
00000000
00000000
00000010
00000000
00000000
00001000
00000000
00000000
00000200
00000000
00000000
00000000
00000000
00000000
00000300
00000000
00000000
00000000
0000M000
00000000
00000000
00000000
000M0000
00000000
00000000
00000000
00M00000
00000000
00000000
00000000
0M000000
00000000
00000000
00000000
MMMMMMMM
00000000
00000000
00000000
,
0M000000
00000000
00M00000
00000000
000M0000
00000000
0000M000
00000000
00000000
00000000
00000000
00000000
MMMMMMMM
00000000
00000000
MMMMMMMM
00000000
00000000
MMMMMMMM
00000000
00000000
MMMMMMMM
00000000
00000000
,
MMMMMMMM
MMMMMMMM
MMMMMMMM
MMMMMMMM
MMMMMMMM
MMMMMMMM
MMMMMMMM
00000000
,
20000000
00000000
00000000
00000000
,
3MMMMMMM
00000000
00000000
00000000
;
