#TITLE:夢幻華;
#SUBTITLE:;
#ARTIST:TOMOYUKI;
#TITLETRANSLIT:Mugenka;
#SUBTITLETRANSLIT:;
#ARTISTTRANSLIT:;
#GENRE:;
#CREDIT:;
#BANNER:mugenka-bn.png;
#BACKGROUND:mugenka-bg.png;
#CDTITLE:NAOKI_cdtitle.png;
#MUSIC:mugenka.ogg;
#OFFSET:-0.03;
#SAMPLESTART:116.011000;
#SAMPLELENGTH:12.000000;
#SELECTABLE:YES;
#BPMS:0.000=176.000;
#STOPS:;
#BGCHANGES:;
#FGCHANGES:;


//---------------dance-single - NAOKI----------------
#NOTES:
     dance-single:
     NAOKI:
     Beginner:
     2:
     0.217000,0.319000,0.048000,0.067000,0.000000:
0000
0000
0000
0000
,
0000
0000
0000
0000
,
0000
0000
0000
0000
,
0000
0000
0000
0000
,
0020
0000
0030
0000
,
0200
0000
0300
0000
,
0002
0000
0003
0000
,
2000
0000
3000
0000
,
0200
0000
0300
0000
,
0020
0000
0030
0000
,
0002
0000
0003
0000
,
2000
0000
3000
0000
,
0010
0000
0010
0000
,
0100
0000
0100
0000
,
0001
0000
0001
0000
,
1000
0000
1000
0000
,
0100
0000
0100
0000
,
0010
0000
0010
0000
,
0001
0000
0001
0000
,
1000
0000
1000
0000
,
0010
0000
0000
0000
,
0010
0000
0000
0000
,
1000
0000
1000
0000
,
0001
0000
0001
0000
,
0010
0000
0000
0000
,
0010
0000
0000
0000
,
0001
0000
0001
0000
,
1000
0000
1000
0000
,
0100
0000
0000
0000
,
0100
0000
0000
0000
,
1000
0000
1000
0000
,
0001
0000
0001
0000
,
0100
0000
0000
0000
,
0100
0000
0000
0000
,
0001
0000
0001
0000
,
1000
0000
1000
0000
,
0010
0010
0010
0000
,
0100
0000
0001
0000
,
0010
0010
0010
0000
,
0100
0000
1000
0000
,
0100
0100
0100
0000
,
0010
0000
0001
0000
,
0100
0100
0100
0000
,
0010
0000
1000
0000
,
0001
0001
0001
0000
,
0010
0000
0100
0000
,
1000
1000
1000
0000
,
0010
0000
0100
0000
,
0001
0001
0001
0000
,
0100
0000
0010
0000
,
1000
1000
1000
0000
,
0100
0000
0010
0000
,
0001
0001
0000
1000
,
1000
0000
0010
0010
,
1000
1000
0000
0001
,
0001
0000
0010
0010
,
0001
0001
0000
1000
,
1000
0000
0100
0100
,
1000
1000
0000
0001
,
0001
0000
0100
0100
,
0010
0010
0000
0100
,
0100
0000
0001
0001
,
0010
0010
0000
0100
,
0100
0000
1000
1000
,
0100
0100
0000
0010
,
0010
0000
0001
0001
,
0100
0100
0000
0010
,
0010
0000
1000
1000
,
0200
0000
0000
0300
,
0010
0000
0010
0000
,
0001
0000
0001
0000
,
1000
0000
1000
0000
,
0010
0000
0100
0000
,
0010
0000
0010
0000
,
1000
0000
1000
0000
,
0001
0000
0001
0000
,
0010
0000
0010
0000
,
0100
0000
0100
0000
,
1000
0000
1000
0000
,
0001
0000
0001
0000
,
0100
0000
0010
0000
,
0100
0000
0100
0000
,
0001
0000
0001
0000
,
1000
0000
1000
0000
,
0100
0000
0100
0000
,
0010
0010
0010
0010
,
0001
0001
1000
1000
,
0010
0000
0100
0000
,
1001
0000
0110
0000
,
0010
0010
0010
0010
,
1000
1000
0001
0001
,
0010
0000
0100
0000
,
1001
0000
0110
0000
,
0100
0100
0100
0100
,
0001
0001
1000
1000
,
0100
0000
0010
0000
,
1001
0000
0110
0000
,
0100
0100
0100
0100
,
1000
1000
0001
0001
,
0100
0000
0010
0000
,
2002
0000
0000
0000
,
3003
0000
0000
0000
,
0010
0000
0000
0000
,
0100
0000
0000
0000
,
0001
0000
0000
0000
,
1000
0000
0000
0000
,
0100
0000
0000
0000
,
0010
0000
0000
0000
,
0001
0000
0000
0000
,
0100
0000
0000
0000
,
0010
0000
0000
0000
,
1000
0000
0000
0000
,
0001
0000
0000
0000
,
0010
0000
0000
0000
,
0100
0000
0000
0000
,
1000
0000
0000
0000
,
0001
0000
0000
0000
,
1001
0000
0000
0000
;

//---------------dance-single - NAOKI----------------
#NOTES:
     dance-single:
     NAOKI:
     Easy:
     6:
     0.375000,0.425000,0.218000,0.200000,0.000000:
0000
0000
0000
0000
,
0000
0000
0000
0000
,
0000
0000
0000
0000
,
0000
0000
0000
0000
,
0020
0000
2030
0000
,
3200
0000
0310
0001
,
0100
0100
0010
0010
,
1000
0000
0001
0000
,
0020
0000
0032
0000
,
0203
0000
0310
1000
,
0100
0100
0010
0010
,
0001
0000
1000
0000
,
0200
0000
2300
0000
,
3020
0000
0130
0001
,
0010
0010
0100
0100
,
1000
0000
0001
0000
,
0200
0000
0302
0000
,
0023
0000
0130
1000
,
0010
0010
0100
0100
,
0001
0000
1000
0001
,
1001
0000
0100
0000
,
0010
1000
0001
0010
,
0110
0000
0100
0000
,
1000
0010
0100
0001
,
1001
0000
0010
0000
,
0100
1000
0001
0100
,
0110
0000
0010
0000
,
1000
0100
0010
0001
,
1001
1000
0010
0000
,
0100
0001
1000
0100
,
0110
0000
0010
0000
,
0001
0100
0010
1000
,
1001
0000
0100
0000
,
0010
0001
1000
0010
,
0110
0000
0100
0000
,
0001
0010
0100
1000
,
1001
0001
0100
0100
,
0010
1000
0200
0300
,
1000
1000
0100
0100
,
0010
0001
0200
0300
,
0001
0001
0010
0010
,
0100
1000
0020
0030
,
1000
1000
0010
0010
,
0100
0001
0020
0030
,
1001
0001
0010
0100
,
1000
1000
0001
0100
,
0010
0010
1000
0001
,
0100
0100
0010
1000
,
1001
0001
0100
0010
,
1000
1000
0001
0010
,
0100
0100
1000
0001
,
0010
0010
1100
0101
,
1002
0100
0000
2003
,
0100
0000
3010
0100
,
0002
0010
0000
2003
,
0010
0000
3010
0110
,
2000
0100
0000
3002
,
0100
0000
0013
0100
,
2000
0010
0000
3002
,
0010
0000
0103
0010
,
0120
0100
0000
0100
,
0130
0001
1000
0100
,
0020
0100
0000
0100
,
0130
1000
0001
0100
,
0210
0010
0000
0010
,
0310
1000
0001
0010
,
0200
0010
0000
0010
,
0310
0001
1000
0010
,
0200
0000
0000
0300
,
0010
1000
1000
0010
,
0001
0001
0100
1000
,
1000
0100
0001
0001
,
0010
0100
1000
0001
,
0100
1000
1000
0100
,
0001
0001
0010
1000
,
1000
0010
0001
0001
,
0100
0010
1000
0100
,
0010
0001
0001
0010
,
1000
1000
0100
0001
,
0001
0100
1000
1000
,
0010
0100
0001
0010
,
0100
1000
1000
0100
,
0001
0001
0010
1000
,
1000
0010
0001
0001
,
0100
0010
1000
0100
,
0011
0010
0001
0100
,
1010
0010
1000
0100
,
0011
0001
1010
1000
,
0200
0001
1300
0000
,
1010
0010
1000
0100
,
0011
0010
0001
0100
,
1010
1000
0011
0001
,
0200
1000
0301
0000
,
1100
0100
1000
0010
,
0101
0100
0001
0010
,
1100
1000
0101
0001
,
0020
1000
0031
0000
,
0101
0100
0001
0010
,
1100
0100
1000
0010
,
0101
0001
1100
1000
,
0020
0001
1030
0000
,
0011
0000
0001
0000
,
1000
0000
1000
0000
,
0010
0000
0010
0000
,
0100
0000
0100
0000
,
1010
0000
1000
0000
,
0001
0000
0001
0000
,
0010
0000
0010
0000
,
0100
0000
0100
0000
,
1000
0000
1000
0000
,
0001
0000
0001
0000
,
0100
0000
0100
0000
,
0010
0000
0010
0000
,
0101
0000
0001
0000
,
1000
0000
1000
0000
,
0100
0000
0100
0000
,
0010
0000
0010
0000
,
0001
0000
0000
0000
;

//---------------dance-single - NAOKI----------------
#NOTES:
     dance-single:
     NAOKI:
     Medium:
     12:
     0.594000,0.602000,0.303000,0.121000,0.006000:
0000
0000
0000
0000
,
0000
0000
0000
0000
,
0000
0000
0000
0000
,
0000
0000
0000
0000
,
0020
0100
0130
0010
,
0100
0001
0010
0100
2000
0000
3002
0000
,
0103
0000
0100
0010
0000
0010
1000
0000
,
0200
0000
0310
0001
1000
0010
0100
0001
,
0020
0100
0130
0010
,
0100
1000
0010
0100
0002
0000
2003
0000
,
3100
0000
0100
0010
0000
0010
0002
0000
,
0103
0000
0010
1000
0100
0010
0001
0000
,
0200
0010
0310
0100
,
0010
1000
0100
0010
0002
0000
2003
0000
,
3010
0000
0010
0100
0000
0100
0001
0000
,
0020
0000
0130
1000
0010
0100
0001
1000
,
0200
0010
0310
0100
,
0010
0001
0100
0010
2000
0000
3002
0000
,
0013
0000
0010
0100
0000
0100
2000
0000
,
3010
0000
0100
0000
0001
0010
0100
1000
,
0010
0000
0010
0100
0000
0001
0000
1000
,
0000
0100
0000
0100
0010
0001
0000
0000
,
0100
0000
0100
0010
0000
1000
0000
0001
,
0000
0010
0000
0010
0100
1000
0000
0000
,
0100
0000
0100
0010
0000
0001
0000
1000
,
0000
0010
0000
0010
0100
0001
0000
0000
,
0010
0000
0010
0100
0000
1000
0000
0001
,
0000
0100
0000
0100
0010
1000
0000
0000
,
1001
0000
0001
0010
0000
0010
0000
0100
,
0000
0100
0000
1000
0001
0100
0010
0000
,
1000
0000
1000
0010
0000
0010
0000
0100
,
0000
0100
0000
0001
1000
0100
0010
0000
,
0001
0000
0001
0100
0000
0100
0000
0010
,
0000
0010
0000
1000
0001
0010
0100
0000
,
1000
0000
1000
0100
0000
0100
0000
0010
,
0000
0010
0000
0001
1000
0010
0100
0001
,
1000
0100
1000
0000
0001
0100
0001
0000
,
0010
0100
1000
0001
1000
0010
0100
0000
,
0001
0100
0001
0000
1000
0100
1000
0000
,
0010
0100
0001
1000
0001
0010
0100
0000
,
1000
0010
1000
0000
0001
0010
0001
0000
,
0100
0010
1000
0001
1000
0100
0010
0000
,
0001
0010
0001
0000
1000
0010
1000
0000
,
0100
0010
0001
1000
0001
0100
0010
0000
,
0110
0100
0010
0000
1000
0100
1000
0000
,
0001
0100
0010
1000
0100
0010
0001
0000
,
0010
0100
0010
0000
0001
0100
0001
0000
,
1000
0100
0010
0001
0100
0010
1000
0000
,
0100
0010
0100
0000
1000
0010
1000
0000
,
0001
0010
0100
1000
0010
0100
0001
0000
,
0100
0001
0100
0001
1000
0100
1000
0100
,
0010
0001
0100
0010
1000
0100
0010
0000
,
1001
0110
0010
1100
,
0101
0000
0010
0000
1000
0001
0010
0000
,
1001
0110
0100
1010
,
0011
0000
0100
0000
1000
0001
0100
0000
,
1001
0110
0010
0101
,
1100
0000
0010
0000
0001
1000
0010
0000
,
1001
0110
0100
0011
,
1010
0000
0100
0000
0001
1000
0100
0000
,
1001
0000
0010
1000
0100
0000
0011
0000
,
0100
1000
0010
0000
0101
0000
1100
0000
,
1001
0000
0010
0001
0100
0000
1010
0000
,
0100
0001
0010
0000
1100
0000
0101
0000
,
1001
0000
0100
1000
0010
0000
0101
0000
,
0010
1000
0100
0000
0011
0000
1010
0000
,
1001
0000
0100
0001
0010
0000
1100
0000
,
0010
0001
0100
0000
1010
0000
0011
0000
,
0100
0000
0000
1000
0000
0000
0001
0000
0000
0100
0000
0000
0010
0000
0000
0000
,
1010
0000
1000
0100
0000
1000
0100
0010
,
0001
0100
0000
0001
0100
0000
0010
1000
,
0001
0010
0000
0001
0010
0000
0010
0001
,
1000
0010
0000
1000
0010
0100
0001
0000
,
0011
0000
0001
0100
0000
0001
0100
0010
,
1000
0100
0000
1000
0100
0000
0010
0001
,
1000
0010
0000
1000
0010
0000
0100
0001
,
1000
0100
0010
0001
0100
0010
1000
0000
,
1100
0000
1000
0010
0000
1000
0010
0100
,
0001
0010
0000
0001
0010
0000
0100
1000
,
0001
0100
0000
0001
0100
0000
0010
1000
,
0001
0010
0000
0001
0010
0100
1000
0000
,
0101
0000
0001
0010
0000
0001
0010
0100
,
1000
0010
0000
1000
0010
0000
0100
0001
,
1000
0100
0000
1000
0100
0000
0010
0001
,
1000
0010
0100
0001
1000
0100
0010
0001
,
0100
1010
0001
0011
,
1000
1100
0010
0101
,
0100
0010
1000
0001
1000
0100
0010
0000
,
0001
0010
0100
1000
0010
0100
0001
1000
,
0100
0011
1000
1010
,
0001
0101
0010
1100
,
0100
0010
0001
1000
0001
0100
0010
0000
,
1000
0100
0010
0001
1000
0010
0100
0001
,
0010
1100
0001
0101
,
1000
1010
0100
0011
,
0010
0100
1000
0001
1000
0010
0100
0000
,
0001
0100
0010
1000
0100
0010
0001
0100
,
0010
1000
0010
1000
0001
0010
0001
0010
,
0100
1000
0100
1000
0001
0100
0001
0100
,
0020
2030
3002
0023
,
0130
1000
0010
0100
0001
0010
0100
1000
,
0010
0100
0001
0000
,
0010
0100
1000
0000
,
0001
0000
1000
0000
0010
1000
0100
0000
,
1000
0000
0001
0000
0010
0001
1000
0010
,
0100
0010
1000
0000
,
0100
0010
0001
0000
,
1000
0000
0001
0000
0100
0001
0010
0000
,
0001
0000
1000
0010
0100
0001
1000
0100
,
0010
0100
1000
0000
,
0010
0100
0001
0000
,
1000
0000
0001
0000
0010
0001
0100
0000
,
0001
0000
1000
0000
0010
0100
0001
1000
,
0100
0010
0001
0000
,
0100
0010
1000
0000
,
0001
0000
1000
0000
0100
1000
0010
0000
,
1000
0000
0001
0000
0100
0001
0010
0100
,
1000
0000
0000
0000
;

//---------------dance-single - NAOKI----------------
#NOTES:
     dance-single:
     NAOKI:
     Hard:
     15:
     0.801000,0.921000,0.061000,0.230000,0.315000:
0000
0000
0000
0000
,
0000
0000
0000
0000
,
0000
0000
0000
0000
,
0000
0000
0000
0000
,
2002
3000
0203
1000
,
0310
1000
0001
0010
0200
0000
0001
0000
,
0310
0001
1000
0010
0200
0000
0302
0000
,
0023
0000
0130
1000
0001
0100
0010
1000
,
2002
0003
3200
0001
,
0310
0001
1000
0010
0200
0000
1000
0000
,
0310
1000
0001
0010
0000
0010
0100
0000
,
0100
1000
0001
0100
0100
0010
1000
0001
,
2002
3000
0023
1000
,
0130
1000
0001
0100
0020
0000
0001
0000
,
0130
0001
1000
0100
0020
0000
0032
0000
,
0203
0000
0310
1000
0001
0010
0100
1000
,
2002
0003
3020
0001
,
0130
0001
1000
0100
0020
0000
1000
0000
,
0130
1000
0001
0100
0000
0100
0010
0000
,
0010
0000
1000
0000
0001
0000
0010
0000
0100
1000
0001
1000
0001
0100
0010
1000
,
0001
0010
0100
1000
0000
0001
0100
0010
,
0000
0010
1000
0000
0001
0010
0000
0100
,
1000
0010
0100
0001
0000
1000
0100
0010
,
0000
0100
1000
0010
0100
0001
0100
0010
,
1000
0100
0010
0001
0000
1000
0010
0100
,
0000
0100
0001
0000
1000
0100
0000
0010
,
0001
0100
0010
1000
0000
0001
0010
0100
,
0000
0010
0001
0100
0010
1000
0100
0010
,
1001
0010
0100
0001
0000
1000
0100
0010
,
0000
0010
0001
0000
1000
0010
0000
0100
,
0001
0010
0100
1000
0000
0001
0100
0010
,
0000
0100
0001
0010
0100
1000
0100
0010
,
0001
0100
0010
1000
0000
0001
0010
0100
,
0000
0100
1000
0000
0001
0100
0000
0010
,
1000
0100
0010
0001
0000
1000
0010
0100
,
0000
0000
0010
0000
1000
0000
0100
0000
0010
0001
1000
0001
1000
0010
0100
0001
,
1000
0100
1000
0000
0001
0000
0100
0000
0010
1000
0010
0000
0100
0000
0001
0000
,
0010
0001
0010
0000
0100
0000
1000
0000
0020
0000
0100
0000
0130
0000
0000
0000
,
0001
0100
0001
0000
1000
0000
0100
0000
0010
0001
0010
0000
0100
0000
1000
0000
,
0010
1000
0010
0000
0100
0000
0001
0000
0020
0000
0100
0000
0130
0000
0000
0000
,
1000
0010
1000
0000
0001
0000
0010
0000
0100
1000
0100
0000
0010
0000
0001
0000
,
0100
0001
0100
0000
0010
0000
1000
0000
0200
0000
0010
0000
0310
0000
0000
0000
,
0001
0010
0001
0000
1000
0000
0010
0000
0100
0001
0100
0000
0010
0000
1000
0000
,
0100
1000
0100
0000
0010
0000
0001
0000
0200
0000
0010
0000
0310
0000
0000
0000
,
1000
0100
1000
0000
0001
0000
0100
0000
0010
1000
0010
0000
0100
0000
0001
0000
,
0010
0001
0010
0000
0100
0000
1000
0000
0010
0100
0010
0000
0100
0000
0000
0000
,
0001
0100
0001
0000
1000
0000
0100
0000
0010
0001
0010
0000
0100
0000
1000
0000
,
0010
1000
0010
0000
0100
0000
0001
0000
0010
0100
0010
0000
0100
0000
0000
0000
,
1000
0010
1000
0000
0001
0000
0010
0000
0100
1000
0100
0000
0010
0000
0001
0000
,
0100
0001
0100
0000
0010
0000
1000
0000
0100
0010
0100
0000
0010
0000
0000
0000
,
0001
0001
1000
1000
0010
0010
0100
0100
,
0001
0000
0001
0000
0010
0000
0000
0000
1001
0000
0000
0010
0100
0000
0001
0000
,
1000
0100
0100
0001
0010
0000
0100
1000
,
0010
0010
0001
0000
1000
0100
0010
0001
,
1000
0010
0010
0001
0100
0000
0010
1000
,
0100
0100
0001
0000
0010
0100
0010
0000
,
0001
0100
0100
1000
0010
0000
0100
0001
,
0010
0010
1000
0000
0001
0100
0010
1000
,
0001
0010
0010
1000
0100
0000
0010
0001
,
0100
0100
1000
0000
0001
0100
0010
1000
,
0001
0010
0010
1000
0100
0000
0010
0001
,
0100
0100
1000
0000
0001
0010
0100
1000
,
0001
0100
0100
1000
0010
0000
0100
0001
,
0010
0010
1000
0000
0100
0010
0100
0000
,
1000
0010
0010
0001
0100
0000
0010
1000
,
0100
0100
0001
0000
1000
0010
0100
0001
,
1000
0100
0100
0001
0010
0000
0100
1000
,
0010
0010
0001
0000
1000
0100
0010
0001
,
0100
0000
0000
1010
0000
0000
0011
0000
0000
1100
0000
0000
0101
0000
0000
0000
,
1000
0100
0100
0001
0010
0010
1000
0100
,
0010
0001
0001
0100
0001
0001
0010
0100
,
1000
0010
0010
0001
0100
0100
1000
0010
,
0100
0000
0001
0000
1000
0000
0001
0010
0001
1000
0100
1000
0001
0010
0100
1000
,
0001
0100
0100
1000
0010
0010
0001
0100
,
0010
1000
1000
0100
1000
1000
0010
0100
,
0001
0010
0010
1000
0100
0100
0001
0010
,
0100
1000
0001
0100
0010
1000
0001
1000
0001
0100
0010
1000
0001
0010
0100
1000
,
0001
0100
0100
1000
0010
0010
0001
0100
,
0010
1000
1000
0100
1000
1000
0010
0100
,
0001
0010
0010
1000
0100
0100
0001
0010
,
0100
0000
1000
0000
0001
0000
1000
0010
1000
0001
0100
0001
1000
0010
0100
0001
,
1000
0100
0100
0001
0010
0010
1000
0100
,
0010
0001
0001
0100
0001
0001
0010
0100
,
1000
0010
0010
0001
0100
0100
1000
0010
,
0100
0001
1000
0100
0010
0001
1000
0001
1000
0010
0100
0001
1000
0001
0010
0100
,
1000
0001
0010
0100
1000
0001
0100
0010
,
2000
0100
3100
0010
0001
1000
0010
0100
,
0001
1000
0100
0010
0001
0100
0010
0100
,
0001
0000
0010
0000
0100
0000
1000
0001
0100
0010
1000
0001
1000
0001
0010
0100
,
1000
0001
0100
0010
1000
0001
0010
0100
,
2000
0001
3001
0100
0010
1000
0100
0010
,
0001
1000
0010
0100
0001
0010
0100
0010
,
0001
1000
0010
0100
0001
1000
0001
1000
0010
0100
0001
1000
0001
0010
0100
1000
,
0001
1000
0010
0100
0001
1000
0100
0010
,
0002
0100
0103
0010
1000
0001
0010
0100
,
1000
0001
0100
0010
1000
0100
0010
0100
,
1000
0000
0010
0000
0100
0000
0001
1000
0100
0010
0001
1000
0001
1000
0010
0100
,
0001
0010
1000
0010
0001
0100
1000
0100
,
0002
1000
1003
0100
0001
0100
0010
0001
,
1000
0010
1000
0001
0010
0001
1000
0100
1000
0001
0100
0001
1000
0001
1000
0100
,
0010
0001
1000
0001
0100
0010
1000
0010
0100
0001
0100
0010
1000
0001
0010
0100
,
1000
0001
0200
0000
0310
1000
0001
0010
,
0200
0000
0000
0000
0310
0000
0000
0000
0100
0000
0000
1000
0000
0000
0010
0000
,
0100
0001
0010
0000
0100
1000
0001
0100
,
0010
2000
3002
0023
,
0130
0000
1000
0000
0010
0000
0000
0000
1000
0000
0000
0100
0000
0000
0001
0000
,
0100
0000
1000
0000
0010
0000
0000
0000
0001
0000
0000
0010
0000
0000
1000
0000
,
0100
0010
0001
0000
0100
0001
1000
0100
,
0010
0002
2003
3020
,
0130
0000
0001
0000
0010
0000
0000
0000
0001
0000
0000
0100
0000
0000
1000
0000
,
0100
0000
0001
0000
0010
0000
0000
0000
1000
0000
0000
0010
0000
0000
0001
0000
,
0100
0000
0010
0000
1000
0000
0000
0001
0010
0000
0100
0000
1000
0000
0001
0000
,
0100
0000
0010
0100
0001
1000
0100
0010
,
0001
0000
0000
0000
0010
0000
0100
0000
1000
0000
0000
0010
0000
0000
0001
0000
,
0010
0000
1000
0000
0100
0000
0000
0000
0001
0000
0000
0100
0000
0000
1000
0000
,
0010
0000
0100
0000
0001
0000
0000
1000
0100
0000
0010
0000
0001
0000
1000
0000
,
0010
0000
0100
0010
1000
0001
0010
0100
,
1000
0000
0000
0000
;

//---------------dance-single - NAOKI----------------
#NOTES:
     dance-single:
     NAOKI:
     Challenge:
     17:
     1.000000,1.000000,0.121000,0.363000,0.754000:
0000
0000
0000
0000
,
0000
0000
0000
0000
,
0000
0000
0000
0000
,
0000
0000
0000
0000
,
0002
0000
1003
0010
0200
0000
1300
0100
,
0010
0000
1000
0000
0001
0000
0010
0000
0200
0000
0001
0300
0020
0000
1000
0030
,
0100
0010
0001
1000
0010
0100
1000
0100
,
0020
0000
0000
0000
1030
0000
0002
0003
0020
0030
0200
0300
2000
3000
0001
0000
,
0200
0000
0310
1000
0200
0000
0301
0100
,
0010
0000
0001
0000
1000
0000
0010
0000
0200
0000
1000
0300
0020
0000
0001
0030
,
0100
0010
1000
0001
0010
0100
0001
0100
,
0010
0000
0001
0000
0100
0000
0010
0000
2000
3000
0200
0300
0020
0030
0002
0003
,
1000
0000
0010
0100
0010
0000
1000
0000
0010
0100
0010
0000
1000
0000
0001
0000
,
0010
0000
0100
0010
0100
0000
1000
0000
0100
0010
0100
0000
1000
0000
0010
0000
,
0100
0000
0001
1000
0001
0000
0010
0000
0001
1000
0001
0000
0100
0000
0010
0000
,
1000
0000
0100
0010
0100
0000
1000
0000
0001
0000
0100
0000
0010
0000
1000
0000
,
0001
0000
0010
0100
0010
0000
0001
0000
0010
0100
0010
0000
0001
0000
1000
0000
,
0010
0000
0100
0010
0100
0000
0001
0000
0100
0010
0100
0000
0001
0000
0010
0000
,
0100
0000
1000
0001
1000
0000
0010
0000
1000
0001
1000
0000
0100
0000
0010
0000
,
0001
0000
1000
0000
0010
0000
0100
0000
0001
1000
0010
0100
0010
1000
0001
0010
,
0100
1000
0001
0200
0010
0310
1000
0100
,
0001
0000
0100
0000
1000
0000
0001
0000
1001
0000
0000
0110
0000
0000
1001
0000
,
1000
0010
0001
0010
1000
0001
0010
0100
,
0000
0000
0100
0000
0010
0001
0100
0010
0100
0001
1000
0100
0010
0100
1000
0010
,
0100
0000
0001
0000
1000
0000
0200
0000
0010
0000
0310
0001
0000
1000
0010
0000
,
0100
0010
0100
0000
0010
0000
1000
0000
1001
0000
0000
0110
0000
0000
0001
1000
,
0001
0010
1000
0010
0001
1000
0010
0100
,
0000
0000
0100
0000
0010
1000
0100
0010
0100
1000
0001
0100
0010
0100
0001
0010
,
0200
0300
1000
0000
0001
0000
0100
0000
0020
0000
M001
0000
0130
0000
0010
0000
,
2000
00M1
3100
0010
0200
M001
0310
0100
,
2000
0M01
3010
0100
0020
M001
0130
0010
,
1000
0000
0100
0000
0010
0001
1000
0010
0100
0010
1000
0001
0010
0100
0010
0001
,
1000
0010
0100
0001
0020
100M
0130
0010
,
0002
10M0
0103
0010
0200
100M
0310
0100
,
0002
1M00
0013
0100
0020
100M
0130
0010
,
0001
0000
0100
0000
0010
0000
1000
0000
0001
0010
0001
1000
0010
0100
0001
0100
,
0010
1000
0010
0000
0200
0300
0001
0000
0010
0001
0010
0000
0200
0300
1000
0000
,
0001
0100
0001
0000
0200
0300
0010
0000
1000
0001
0010
0100
2000
0000
3001
0000
,
0010
0001
0010
0000
0200
0300
1000
0000
0010
1000
0010
0000
0200
0300
0001
0000
,
1000
0100
1000
0000
0200
0300
0010
0000
0001
1000
0010
0100
0002
0000
1003
0000
,
0100
1000
0100
0000
0020
0030
0001
0000
0100
0001
0100
0000
0020
0030
1000
0000
,
0001
0010
0001
0000
0020
0030
0100
0000
1000
0001
0100
0010
2000
0000
3001
0000
,
0100
0001
0100
0000
0020
0030
1000
0000
0100
1000
0100
0000
0020
0030
0001
0000
,
1000
0010
1000
0000
0020
0030
0100
0000
0001
1000
0100
0010
0002
0000
1003
0000
,
0010
0100
0001
1000
0100
0000
0010
0000
0001
1000
0010
1000
0001
0000
0100
0000
,
0010
1000
0001
0100
0010
0000
1000
0000
0001
0010
0100
0010
0001
0000
0000
0000
,
0010
0100
1000
0001
0100
0000
0010
0000
1000
0001
0010
0001
1000
0000
0100
0000
,
0010
0001
1000
0100
0010
0000
0001
0000
0100
0010
1000
0001
0100
0000
0000
0000
,
0100
0010
1000
0001
0010
0000
0100
0000
1000
0001
0100
0001
1000
0000
0010
0000
,
0100
0001
1000
0010
0100
0000
0001
0000
0010
0100
1000
0100
0010
0000
0010
0001
,
1000
0010
0100
0010
1000
0001
0010
0100
1000
0001
0100
0001
1000
0100
0010
0001
,
1000
0010
1000
0001
0010
0100
1000
0001
0200
0300
0001
1000
0200
0000
0310
0000
,
0110
0100
1000
0001
0100
0000
0010
1000
,
0100
0100
0001
0000
1000
0100
0010
0001
,
1000
0010
0010
0001
0100
0000
0010
1000
,
0100
0100
0001
0000
0010
0100
0010
0000
,
0001
0100
0100
1000
0010
0000
0100
0001
,
0010
0010
1000
0000
0001
0100
0010
1000
,
0001
0010
0010
1000
0100
0000
0010
0001
,
0100
0100
1000
0000
0001
0010
0100
1000
,
1001
0001
0100
0100
1000
0000
0010
1000
,
0100
0100
0001
0000
1000
0010
0100
0001
,
1000
0100
0100
0001
0010
0000
0100
1000
,
0010
0010
0001
0000
0100
0010
0100
0000
,
0001
0010
0010
1000
0100
0000
0010
0001
,
0100
0100
1000
0000
0001
0010
0100
1000
,
0001
0100
0100
1000
0010
0000
0100
0001
,
0010
0010
1000
0000
1001
0010
1001
0100
,
0010
0000
0000
0000
1000
0000
0000
0000
0100
0000
0000
0000
0020
0030
0000
0000
0001
0000
0000
0000
0100
0000
0000
0000
0020
0030
0000
0000
1000
0000
0000
0000
0100
0000
0000
0000
0020
0030
0000
0000
0001
0000
0000
0000
0100
0000
0000
0000
0020
0030
0000
0000
0000
0000
0000
0000
0000
0000
0000
0000
0000
0000
0000
0000
,
0100
0001
0100
0000
0010
0000
0100
1000
0100
0000
0010
0000
1000
0000
0001
0000
,
0010
0001
0010
0000
0100
0000
0010
1000
0010
0000
0100
0000
0010
0000
0001
0000
,
0100
0001
0100
0000
0010
0000
0100
1000
0100
0000
0010
0000
1000
0000
0001
0000
,
0010
0000
0100
0000
1000
0000
0001
0100
0010
0100
0001
1000
0100
0010
0100
1000
,
0001
0010
0100
1100
0100
0010
0001
1000
,
1010
0010
0100
0101
0100
0010
1000
0001
,
0011
0010
0100
1100
0100
0010
0001
0100
,
0010
0100
0001
0100
0010
1000
0001
0010
0100
0010
0001
1000
0010
0100
0001
0100
,
0010
1000
0010
0000
0100
0000
0010
0001
0010
0000
0100
0000
0001
0000
1000
0000
,
0100
1000
0100
0000
0010
0000
0100
0001
0100
0000
0010
0000
0001
0000
1000
0000
,
0010
1000
0010
0000
0100
0000
0010
0001
0010
0000
0100
0000
0001
0000
1000
0000
,
0100
0000
0010
0000
0001
0000
1000
0010
0100
0010
1000
0001
1000
0100
0010
0001
,
1000
0010
0100
0101
0100
0010
1000
0001
,
0011
0010
0100
1100
0100
0010
0001
1000
,
1010
0010
0100
0101
0100
0010
1000
0001
,
0010
0100
1000
0001
0100
0010
0100
0001
1000
0100
0010
0001
1000
0001
1000
0010
,
0100
0000
0001
0100
0001
0000
1000
0100
0010
0000
0001
0010
0100
0000
1000
0100
,
0001
0000
0100
0010
0001
0000
1000
0100
0001
0000
0100
0010
0001
0000
1000
0000
,
0010
0000
0100
0001
0100
0000
0010
1000
0010
0000
1000
0001
0010
0000
0100
1000
,
0001
0000
0100
0000
0010
0000
1000
0010
0100
0010
1000
0001
0010
0100
1000
0001
,
0100
0000
0001
0100
0001
0000
1000
0100
0010
0000
0001
0010
0100
0000
1000
0001
,
0100
0000
0010
1000
0010
0000
0100
0001
0100
0000
0010
1000
0001
0000
0010
0000
,
0200
0000
1300
0001
0100
0010
2000
0000
3001
0010
0100
1000
0002
0000
1003
0000
,
0010
0100
0001
1000
0100
0010
0100
1000
0001
0100
0010
1000
0001
1000
0001
0010
,
0100
0000
1000
0100
1000
0000
0001
0100
0010
0000
1000
0010
0100
0000
0001
0100
,
1000
0000
0100
0010
1000
0000
0001
0100
1000
0000
0100
0010
1000
0000
0001
0000
,
0010
0000
0100
1000
0100
0000
0010
0001
0010
0000
0100
1000
0001
0000
0100
0010
,
1000
0000
0100
0000
0010
0000
0001
1000
0010
0100
0010
1000
0001
0010
0100
1000
,
0010
0010
0100
0100
0001
0001
1000
0100
,
0110
0010
0100
0100
1000
1000
0001
0001
,
0100
0010
1000
0001
0010
0100
0010
0001
1000
0010
0100
0010
1000
0001
0010
0001
,
1000
0100
0010
1000
0010
0100
1000
0001
0100
0010
0001
0010
0100
0001
1000
0100
,
0020
0000
0130
0000
0010
0001
1000
0010
,
0200
0000
0000
0000
0310
0000
0000
0000
0100
0000
0000
0100
0010
0000
1000
0000
,
0100
0000
0010
0001
1000
0010
0100
0001
,
2000
0000
0000
3000
0001
0010
0001
1000
0010
1000
0001
0010
0100
1000
0001
0100
,
0020
0000
0000
0000
0130
0000
0000
0000
0010
0000
0000
0010
0100
0000
0001
0000
,
0010
0100
1000
0000
0100
0000
0000
0000
0010
0000
0000
0010
0001
0000
1000
0010
,
0100
0001
0100
0000
0010
1000
0100
0010
,
0002
0000
0000
0003
1000
0100
1000
0001
0100
0001
1000
0100
0010
0001
1000
0010
,
0100
0000
0001
0000
0010
0000
0000
0000
0100
0000
0000
1000
0000
0000
0001
0000
,
0100
0010
0100
0000
0001
0000
0000
0000
0010
0000
0000
0100
0000
0000
1000
0000
,
0001
0000
0100
0000
0010
0000
0000
0010
1000
0000
0001
0000
0010
0000
0100
0000
,
2000
0000
0000
3000
0001
0100
0001
1000
0100
1000
0001
0010
0100
1000
0001
0100
,
0010
0000
1000
0000
0100
0000
0000
0000
0010
0000
0000
0001
0000
0000
1000
0000
,
0010
0100
0010
0000
1000
0000
0000
0000
0100
0000
0000
0010
0000
0000
0001
0000
,
1000
0000
0010
0000
0100
0000
0000
0100
0001
0000
1000
0000
0100
0000
0010
0000
,
0001
0000
0000
0000
0100
0000
0010
0000
1000
0010
0100
0010
1000
0001
0010
0100
,
1000
0000
0000
0000
;

//---------------dance-double - [FG v1.00] NAOKI----------------
#NOTES:
     dance-double:
     [FG v1.00] NAOKI:
     Beginner:
     2:
     0.217000,0.319000,0.048000,0.067000,0.000000:
00000000
00000000
00000000
00000000
,
00000000
00000000
00000000
00000000
,
00000000
00000000
00000000
00000000
,
00000000
00000000
00000000
00000000
,
00000020
00000000
00000030
00000000
,
00000200
00000000
00000300
00000000
,
00000002
00000000
00000003
00000000
,
00002000
00000000
00003000
00000000
,
00000200
00000000
00000300
00000000
,
00020000
00000000
00030000
00000000
,
00002000
00000000
00003000
00000000
,
00200000
00000000
00300000
00000000
,
00010000
00000000
00010000
00000000
,
01000000
00000000
01000000
00000000
,
00001000
00000000
00001000
00000000
,
00100000
00000000
00100000
00000000
,
00010000
00000000
00010000
00000000
,
01000000
00000000
01000000
00000000
,
00001000
00000000
00001000
00000000
,
00010000
00000000
00010000
00000000
,
00000100
00000000
00000000
00000000
,
00000100
00000000
00000000
00000000
,
00010000
00000000
00010000
00000000
,
00000010
00000000
00000010
00000000
,
00001000
00000000
00000000
00000000
,
00001000
00000000
00000000
00000000
,
00000010
00000000
00000010
00000000
,
00000100
00000000
00000100
00000000
,
00000001
00000000
00000000
00000000
,
00000001
00000000
00000000
00000000
,
00000100
00000000
00000100
00000000
,
00000010
00000000
00000010
00000000
,
00001000
00000000
00000000
00000000
,
00001000
00000000
00000000
00000000
,
00000010
00000000
00000010
00000000
,
00010000
00000000
00010000
00000000
,
00001000
00001000
00001000
00000000
,
01000000
00000000
00010000
00000000
,
10000000
10000000
10000000
00000000
,
01000000
00000000
00100000
00000000
,
01000000
01000000
01000000
00000000
,
10000000
00000000
00010000
00000000
,
00100000
00100000
00100000
00000000
,
00001000
00000000
00010000
00000000
,
00000100
00000100
00000100
00000000
,
00001000
00000000
00000010
00000000
,
00010000
00010000
00010000
00000000
,
00001000
00000000
01000000
00000000
,
00010000
00010000
00010000
00000000
,
01000000
00000000
00100000
00000000
,
10000000
10000000
10000000
00000000
,
01000000
00000000
00100000
00000000
,
00001000
00001000
00000000
00010000
,
00010000
00000000
00000100
00000100
,
00010000
00010000
00000000
00001000
,
00001000
00000000
00100000
00100000
,
00001000
00001000
00000000
01000000
,
01000000
00000000
00100000
00100000
,
01000000
01000000
00000000
00001000
,
00001000
00000000
00010000
00010000
,
00000100
00000100
00000000
00010000
,
00010000
00000000
00000010
00000010
,
00001000
00001000
00000000
00000001
,
00000001
00000000
00000010
00000010
,
00000001
00000001
00000000
00001000
,
00001000
00000000
00000100
00000100
,
00010000
00010000
00000000
00001000
,
00001000
00000000
00100000
00100000
,
02000000
00000000
00000000
03000000
,
10000000
00000000
10000000
00000000
,
00010000
00000000
00010000
00000000
,
00100000
00000000
00100000
00000000
,
00001000
00000000
01000000
00000000
,
00001000
00000000
00001000
00000000
,
00010000
00000000
00010000
00000000
,
00000010
00000000
00000010
00000000
,
00000100
00000000
00000100
00000000
,
00000001
00000000
00000001
00000000
,
00000010
00000000
00000010
00000000
,
00000100
00000000
00000100
00000000
,
00001000
00000000
00000001
00000000
,
00001000
00000000
00001000
00000000
,
00000100
00000000
00000100
00000000
,
00010000
00000000
00010000
00000000
,
00001000
00000000
00001000
00000000
,
01000000
01000000
01000000
01000000
,
00010000
00010000
10000000
10000000
,
00100000
00000000
01000000
00000000
,
00110000
00000000
00011000
00000000
,
00001000
00001000
00001000
00001000
,
01000000
01000000
00010000
00010000
,
00100000
00000000
00001000
00000000
,
00010010
00000000
00001100
00000000
,
00001000
00001000
00001000
00001000
,
00000001
00000001
00000010
00000010
,
00000100
00000000
00010000
00000000
,
00101000
00000000
01010000
00000000
,
00010000
00010000
00010000
00010000
,
10000000
10000000
00100000
00100000
,
01000000
00000000
00010000
00000000
,
00022000
00000000
00000000
00000000
,
00033000
00000000
00000000
00000000
,
00000100
00000000
00000000
00000000
,
00000010
00000000
00000000
00000000
,
00000001
00000000
00000000
00000000
,
00000100
00000000
00000000
00000000
,
00000010
00000000
00000000
00000000
,
00010000
00000000
00000000
00000000
,
00000100
00000000
00000000
00000000
,
00000010
00000000
00000000
00000000
,
00000001
00000000
00000000
00000000
,
00001000
00000000
00000000
00000000
,
00000100
00000000
00000000
00000000
,
00010000
00000000
00000000
00000000
,
00001000
00000000
00000000
00000000
,
01000000
00000000
00000000
00000000
,
00100000
00000000
00000000
00000000
,
01100000
00000000
00000000
00000000
;

//---------------dance-double - [FG v1.00] NAOKI----------------
#NOTES:
     dance-double:
     [FG v1.00] NAOKI:
     Easy:
     6:
     0.375000,0.425000,0.218000,0.200000,0.000000:
00000000
00000000
00000000
00000000
,
00000000
00000000
00000000
00000000
,
00000000
00000000
00000000
00000000
,
00000000
00000000
00000000
00000000
,
00000200
00000000
00020300
00000000
,
00030020
00000000
00001030
00000100
,
00010000
00010000
00001000
00001000
,
00100000
00000000
01000000
00000000
,
20000000
00000000
32000000
00000000
,
03200000
00000000
00310000
01000000
,
00001000
00001000
00010000
00010000
,
00000010
00000000
00001000
00000000
,
00000002
00000000
00002003
00000000
,
00003200
00000000
00000310
00000001
,
00000100
00000100
00000010
00000010
,
00010000
00000000
00001000
00000000
,
02000000
00000000
03002000
00000000
,
00203000
00000000
01300000
10000000
,
00010000
00010000
00100000
00100000
,
00001000
00000000
00010000
00001000
,
00011000
00000000
01000000
00000000
,
00010000
10000000
00100000
01000000
,
01001000
00000000
00001000
00000000
,
00010000
00000100
00000010
00000001
,
00000101
00000000
00000010
00000000
,
00000100
00010000
00001000
00100000
,
00110000
00000000
00010000
00000000
,
10000000
01000000
00100000
00001000
,
00011000
00010000
00000010
00000000
,
00000100
00000001
00001000
00000100
,
00010100
00000000
00010000
00000000
,
00001000
01000000
00100000
10000000
,
11000000
00000000
00010000
00000000
,
01000000
00001000
00010000
00000010
,
00001010
00000000
00001000
00000000
,
00000001
00000100
00000010
00010000
,
00010100
00000100
00001000
00001000
,
00000010
00010000
00002000
00003000
,
00010000
00010000
00001000
00001000
,
01000000
00100000
20000000
30000000
,
00100000
00100000
01000000
01000000
,
00001000
00010000
00000200
00000300
,
00010000
00010000
00000100
00000100
,
00000010
00000001
00002000
00003000
,
00000011
00000001
00001000
00000100
,
00010000
00010000
00001000
00100000
,
01000000
01000000
10000000
00100000
,
01000000
01000000
00001000
00010000
,
00010010
00000010
00000100
00000001
,
00001000
00001000
00000010
00010000
,
00001000
00001000
00100000
00010000
,
10000000
10000000
01001000
00010100
,
00001200
00010000
00000000
00000320
,
00000001
00000000
00000130
00010000
,
00002000
01000000
00000000
00203000
,
00010000
00000000
00310000
01010000
,
00200000
00001000
00000000
02300000
,
10000000
00000000
03100000
00001000
,
00020000
00000010
00000000
00030200
,
00000010
00000000
00001300
00000010
,
00001020
00001000
00000000
00001000
,
00001030
00000100
00010000
00000010
,
00000200
00000010
00000000
00000010
,
00000310
00010000
00001000
01000000
,
02010000
00010000
00000000
00010000
,
03010000
00100000
00001000
01000000
,
00200000
01000000
00000000
01000000
,
01300000
00001000
00010000
00000010
,
00002000
00000000
00000000
00003000
,
00000010
00000100
00000100
00000010
,
00000001
00000001
00000100
00001000
,
00001000
00000100
00000010
00000010
,
00010000
00001000
00100000
00010000
,
01000000
10000000
10000000
01000000
,
00010000
00010000
00100000
10000000
,
10000000
00100000
00010000
00010000
,
01000000
00001000
00010000
00000100
,
00000010
00000001
00000001
00000010
,
00001000
00001000
00000100
00000001
,
00000001
00000100
00001000
00001000
,
00000010
00010000
00001000
00100000
,
01000000
10000000
10000000
01000000
,
00010000
00010000
00100000
10000000
,
10000000
00100000
00010000
00010000
,
01000000
00001000
00010000
00000100
,
00101000
00100000
00001000
00010000
,
00001100
00000100
00001000
00000001
,
00010100
00000100
00101000
00100000
,
02000000
00010000
03100000
00000000
,
00101000
00001000
00100000
00010000
,
00011000
00010000
00001000
01000000
,
00010100
00010000
00001001
00000001
,
00000200
00001000
00000310
00000000
,
00011000
00001000
00010000
00000100
,
01001000
01000000
00001000
00100000
,
00010100
00010000
01001000
00001000
,
00020000
01000000
00031000
00000000
,
01001000
01000000
00001000
00100000
,
00010100
00000100
00010000
00000010
,
00000101
00000001
00010010
00010000
,
00002000
00000100
00013000
00000000
,
01010000
00000000
00010000
00000000
,
10000000
00000000
10000000
00000000
,
01000000
00000000
01000000
00000000
,
00100000
00000000
00100000
00000000
,
11000000
00000000
10000000
00000000
,
00010000
00000000
00010000
00000000
,
00100000
00000000
00100000
00000000
,
00001000
00000000
00001000
00000000
,
00010000
00000000
00010000
00000000
,
00000010
00000000
00000010
00000000
,
00001000
00000000
00001000
00000000
,
00000100
00000000
00000100
00000000
,
00001010
00000000
00000010
00000000
,
00000100
00000000
00000100
00000000
,
00000001
00000000
00000001
00000000
,
00001000
00000000
00001000
00000000
,
00000010
00000000
00000000
00000000
;

//---------------dance-double - [FG v1.00] NAOKI----------------
#NOTES:
     dance-double:
     [FG v1.00] NAOKI:
     Medium:
     12:
     0.594000,0.602000,0.303000,0.121000,0.006000:
00000000
00000000
00000000
00000000
,
00000000
00000000
00000000
00000000
,
00000000
00000000
00000000
00000000
,
00000000
00000000
00000000
00000000
,
00000200
00001000
00001300
00000100
,
00001000
00000001
00000100
00000010
00020000
00000000
00032000
00000000
,
01003000
00000000
01000000
00010000
00000000
00010000
10000000
00000000
,
02000000
00000000
03100000
00010000
10000000
00100000
01000000
00001000
,
00020000
00000010
00030010
00010000
,
00000010
00000100
00000001
00001000
00000200
00000000
00020300
00000000
,
00031000
00000000
00001000
00100000
00000000
00100000
00020000
00000000
,
01030000
00000000
00001000
00100000
00010000
01000000
00001000
00000000
,
00020000
00000100
00030100
00010000
,
00000100
00000010
00000001
00001000
00000020
00000000
00020030
00000000
,
00031000
00000000
00001000
01000000
00000000
01000000
00010000
00000000
,
20000000
00000000
30100000
01000000
00010000
10000000
01000000
00100000
,
00002000
00010000
00013000
00001000
,
00010000
00000010
00001000
00000001
00000200
00000000
00000320
00000000
,
00001030
00000000
00001000
00000001
00000000
00000001
00000200
00000000
,
00000310
00000000
00010000
00000000
00001000
00100000
00010000
01000000
,
00100000
00000000
00100000
10000000
00000000
00010000
00000000
01000000
,
00000000
00001000
00000000
00001000
00010000
00000010
00000000
00000000
,
00000100
00000000
00000100
00000001
00000000
00001000
00000000
00000100
,
00000000
00010000
00000000
00010000
00001000
01000000
00000000
00000000
,
00001000
00000000
00001000
00010000
00000000
00000100
00000000
00001000
,
00000000
00000010
00000000
00000010
00010000
00001000
00000000
00000000
,
00100000
00000000
00100000
00010000
00000000
01000000
00000000
00100000
,
00000000
10000000
00000000
10000000
00010000
01000000
00000000
00000000
,
01001000
00000000
00001000
00010000
00000000
00010000
00000000
00000100
,
00000000
00000100
00000000
00000010
00000001
00001000
00000100
00000000
,
00000010
00000000
00000010
00000100
00000000
00000100
00000000
00010000
,
00000000
00010000
00000000
00001000
01000000
00010000
00100000
00000000
,
00001000
00000000
00001000
01000000
00000000
01000000
00000000
00010000
,
00000000
00010000
00000000
10000000
00100000
01000000
00010000
00000000
,
10000000
00000000
10000000
00010000
00000000
00010000
00000000
00100000
,
00000000
00100000
00000000
00001000
00010000
00000010
00001000
00000001
,
00000100
00000010
00000100
00000000
00000001
00001000
00000001
00000000
,
00000010
00000100
00001000
00000010
00001000
00000100
00010000
00000000
,
00001000
00010000
00001000
00000000
01000000
00100000
01000000
00000000
,
00001000
00100000
00010000
01000000
00010000
10000000
00100000
00000000
,
01000000
00001000
01000000
00000000
00010000
10000000
00010000
00000000
,
01000000
00001000
00010000
00000010
00010000
00000100
00001000
00000000
,
00000001
00001000
00000001
00000000
00000100
00000010
00000100
00000000
,
00000001
00001000
00000100
00000010
00000100
00010000
00001000
00000000
,
00011000
00010000
00001000
00000000
00100000
01000000
00100000
00000000
,
00010000
10000000
00100000
01000000
00001000
00100000
00010000
00000000
,
00100000
00001000
00100000
00000000
00010000
10000000
00010000
00000000
,
01000000
00001000
00010000
00000010
00001000
00000001
00000010
00000000
,
00000100
00010000
00000100
00000000
00001000
00000010
00001000
00000000
,
00000100
00010000
00001000
00100000
01000000
10000000
00010000
00000000
,
10000000
00010000
10000000
00010000
01000000
00001000
01000000
00001000
,
00010000
00000010
00001000
00000001
00000100
00000010
00001000
00000000
,
00010100
01001000
01000000
00011000
,
00001010
00000000
00000001
00000000
00000010
00000100
00001000
00000000
,
00010100
00101000
00100000
01001000
,
00110000
00000000
00001000
00000000
00010000
00000100
00000010
00000000
,
00010100
01001000
00001000
01010000
,
10100000
00000000
01000000
00000000
00001000
00010000
00000010
00000000
,
00010100
00000011
00000001
00000110
,
00011000
00000000
00100000
00000000
00010000
10000000
01000000
00000000
,
10100000
00000000
00010000
10000000
00100000
00000000
01010000
00000000
,
00001000
00010000
00000010
00000000
00000101
00000000
00001010
00000000
,
00001100
00000000
00010000
00000100
00001000
00000000
00011000
00000000
,
01000000
00010000
00100000
00000000
01001000
00000000
00010100
00000000
,
00001100
00000000
00000001
00001000
00000010
00000000
00000101
00000000
,
00000010
00010000
00001000
00000000
00110000
00000000
01001000
00000000
,
01010000
00000000
10000000
00010000
00100000
00000000
11000000
00000000
,
00100000
00001000
00010000
00000000
00001010
00000000
00000101
00000000
,
00000010
00000000
00000000
00001000
00000000
00000000
00000100
00000000
00000000
00010000
00000000
00000000
00001000
00000000
00000000
00000000
,
01001000
00000000
01000000
00010000
00000000
01000000
00010000
10000000
,
01000000
00100000
00000000
01000000
00100000
00000000
00001000
00010000
,
00000010
00001000
00000000
00000010
00001000
00000000
00001000
00000010
,
00010000
00001000
00000000
00010000
00001000
00100000
00010000
00000000
,
10010000
00000000
00010000
00100000
00000000
00010000
00100000
00001000
,
00010000
00000100
00000000
00010000
00000100
00000000
00001000
00000001
,
00000010
00000100
00000000
00000010
00000100
00000000
00001000
00000001
,
00000010
00000100
00010000
00001000
01000000
00100000
10000000
00000000
,
10010000
00000000
10000000
01000000
00000000
10000000
01000000
00100000
,
00001000
00010000
00000000
00001000
00010000
00000000
00000100
00001000
,
00000001
00000100
00000000
00000001
00000100
00000000
00000010
00010000
,
00001000
01000000
00000000
00001000
01000000
00010000
00100000
00000000
,
01001000
00000000
00001000
00010000
00000000
00001000
00010000
00000010
,
00000100
00000001
00000000
00000100
00000001
00000000
00000010
00000100
,
00010000
00001000
00000000
00010000
00001000
00000000
00100000
01000000
,
10000000
00100000
01000000
00010000
00100000
00001000
00010000
00000010
,
00000100
00011000
00000010
00000110
,
00001000
00001100
00010000
01001000
,
01000000
00100000
10000000
00010000
10000000
01000000
00100000
00000000
,
00010000
00100000
00001000
00010000
00000010
00001000
00000100
00010000
,
00001000
01010000
00100000
01100000
,
00001000
00011000
00000100
00001001
,
00000001
00000010
00000100
00010000
00000100
00001000
00000001
00000000
,
00000010
00000100
00010000
00001000
01000000
00010000
10000000
00100000
,
01000000
00011000
00000100
00000110
,
00010000
00011000
00100000
01010000
,
01000000
00001000
00010000
00000010
00010000
00000100
00001000
00000000
,
00000001
00001000
00000010
00010000
00001000
01000000
00010000
10000000
,
00100000
01000000
00100000
01000000
00001000
00010000
00001000
00010000
,
00000010
00001000
00000010
00001000
00000001
00000100
00000001
00000100
,
00000020
00020030
00032000
00203000
,
00310000
10000000
01000000
00100000
00010000
10000000
01000000
00100000
,
00001000
01000000
00010000
00000000
,
00100000
00001000
00010000
00000000
,
00000100
00000000
00010000
00000000
00001000
00010000
00000100
00000000
,
00010000
00000000
00000010
00000000
00001000
00000010
00000100
00000001
,
00001000
00000001
00000010
00000000
,
00000100
00010000
00001000
00000000
,
01000000
00000000
00001000
00000000
00010000
00001000
00100000
00000000
,
00001000
00000000
01000000
00010000
10000000
01000000
00100000
00010000
,
10000000
00010000
01000000
00000000
,
00001000
00010000
00000100
00000000
,
00000010
00000000
00000100
00000000
00001000
00000100
00000010
00000000
,
00000100
00000000
00001000
00000000
00000010
00010000
00001000
01000000
,
00100000
10000000
01000000
00000000
,
00100000
00001000
00010000
00000000
,
00000010
00000000
00010000
00000000
00001000
00010000
00000100
00000000
,
00010000
00000000
00001000
00000000
01000000
00001000
00100000
00010000
,
10000000
00000000
00000000
00000000
;

//---------------dance-double - [FG v1.00] NAOKI----------------
#NOTES:
     dance-double:
     [FG v1.00] NAOKI:
     Hard:
     15:
     0.801000,0.921000,0.061000,0.230000,0.315000:
00000000
00000000
00000000
00000000
,
00000000
00000000
00000000
00000000
,
00000000
00000000
00000000
00000000
,
00000000
00000000
00000000
00000000
,
00020020
00030000
00000230
00001000
,
00000310
00010000
00001000
00100000
02000000
00000000
00010000
00000000
,
13000000
00100000
01000000
00001000
00020000
00000000
00030020
00000000
,
00000230
00000000
00000301
00001000
00000100
00010000
00001000
00100000
,
00220000
00030000
02300000
00010000
,
13000000
00100000
01000000
00001000
00020000
00000000
00100000
00000000
,
00031000
00100000
00010000
01000000
00000000
01000000
00001000
00000000
,
00001000
00010000
00000010
00000100
00000100
00000001
00001000
00000100
,
00002200
00003000
00000320
00001000
,
00000031
00001000
00000010
00010000
00002000
00000000
00000100
00000000
,
00013000
00000100
00001000
00000010
00020000
00000000
00032000
00000000
,
02003000
00000000
03010000
10000000
01000000
00100000
00010000
10000000
,
22000000
03000000
30200000
00010000
,
01300000
00001000
00010000
00000100
00000020
00000000
00001000
00000000
,
00000031
00001000
00000010
00010000
00000000
00010000
00000100
00000000
,
00000100
00000000
00001000
00000000
00000010
00000000
00000100
00000000
00000001
00001000
00000100
00001000
00000100
00010000
00001000
00100000
,
00010000
01000000
00001000
00100000
00000000
01000000
10000000
00010000
,
00000000
00010000
01000000
00000000
00100000
10000000
00000000
00010000
,
01000000
00001000
00010000
00000010
00000000
00001000
00000001
00000010
,
00000000
00000001
00001000
00000010
00010000
00000100
00010000
00001000
,
01000000
00010000
00100000
01000000
00000000
10000000
00010000
00100000
,
00000000
00100000
00001000
00000000
00010000
00000010
00000000
00001000
,
00000001
00000100
00000010
00010000
00000000
00000100
00001000
00000001
,
00000000
00001000
00000010
00010000
00001000
01000000
00100000
10000000
,
01010000
00001000
00010000
00000010
00000000
00000100
00000001
00001000
,
00000000
00001000
00000100
00000000
00010000
00001000
00000000
01000000
,
00010000
10000000
00100000
01000000
00000000
00001000
00010000
00000100
,
00000000
00010000
00001000
00100000
00010000
01000000
00010000
10000000
,
01000000
00100000
00001000
00010000
00000000
00000010
00001000
00000001
,
00000000
00000001
00000100
00000000
00000010
00010000
00000000
00000100
,
00001000
00000010
00010000
00001000
00000000
01000000
00010000
10000000
,
00000000
00000000
00010000
00000000
00100000
00000000
01000000
00000000
10000000
00010000
01000000
00010000
01000000
00001000
00010000
00000100
,
00001000
00000001
00001000
00000000
00000010
00000000
00010000
00000000
00000100
00001000
00000100
00000000
00010000
00000000
00001000
00000000
,
00100000
00001000
00100000
00000000
01000000
00000000
10000000
00000000
00200000
00000000
01000000
00000000
01300000
00000000
00000000
00000000
,
00001000
01000000
00001000
00000000
00010000
00000000
00000010
00000000
00000100
00000001
00000100
00000000
00000010
00000000
00010000
00000000
,
00000100
00010000
00000100
00000000
00001000
00000000
00000010
00000000
00020000
00000000
00001000
00000000
00031000
00000000
00000000
00000000
,
00100000
00010000
00100000
00000000
00001000
00000000
00010000
00000000
00000010
00000100
00000010
00000000
00001000
00000000
00000100
00000000
,
00010000
00000100
00010000
00000000
00001000
00000000
01000000
00000000
00200000
00000000
10000000
00000000
10300000
00000000
00000000
00000000
,
01000000
10000000
01000000
00000000
00100000
00000000
00001000
00000000
00010000
00000010
00010000
00000000
00000100
00000000
00001000
00000000
,
00000001
00001000
00000001
00000000
00000100
00000000
00000010
00000000
00020000
00000000
00001000
00000000
00031000
00000000
00000000
00000000
,
00100000
00010000
00100000
00000000
00001000
00000000
01000000
00000000
00010000
10000000
00010000
00000000
01000000
00000000
00001000
00000000
,
00010000
00001000
00010000
00000000
00000100
00000000
00000010
00000000
00000001
00001000
00000001
00000000
00001000
00000000
00000000
00000000
,
00000010
00001000
00000010
00000000
00010000
00000000
00001000
00000000
01000000
00100000
01000000
00000000
00001000
00000000
00100000
00000000
,
00010000
00100000
00010000
00000000
01000000
00000000
00001000
00000000
00010000
00000010
00010000
00000000
00000010
00000000
00000000
00000000
,
00000100
00000001
00000100
00000000
00000010
00000000
00010000
00000000
00000100
00001000
00000100
00000000
00010000
00000000
00001000
00000000
,
01000000
00001000
01000000
00000000
00010000
00000000
10000000
00000000
00100000
01000000
00100000
00000000
01000000
00000000
00000000
00000000
,
00001000
00001000
00010000
00010000
00000010
00000010
00000100
00000100
,
00000001
00000000
00000001
00000000
00001000
00000000
00000000
00000000
00000101
00000000
00000000
00000010
00010000
00000000
00001000
00000000
,
00100000
00010000
00010000
00001000
01000000
00000000
00100000
10000000
,
00010000
00010000
00001000
00000000
00100000
01000000
10000000
00100000
,
01000000
00001000
00001000
00000001
00000010
00000000
00000100
00010000
,
00001000
00001000
00000100
00000000
00010000
00000010
00010000
00000000
,
00000100
00001000
00001000
01000000
00010000
00000000
10000000
01000000
,
00100000
00100000
10000000
00000000
00010000
01000000
00001000
00010000
,
00000010
00000100
00000100
00001000
00000001
00000000
00000100
00000010
,
00010000
00010000
10000000
00000000
01000000
00100000
00001000
00010000
,
00000100
00001000
00001000
01000000
00100000
00000000
10000000
00010000
,
00100000
00100000
01000000
00000000
00001000
00010000
00000010
00000100
,
00000001
00001000
00001000
00010000
00000010
00000000
00000100
00000001
,
00001000
00001000
01000000
00000000
00010000
10000000
00010000
00000000
,
01000000
00001000
00001000
00000001
00000010
00000000
00000100
00010000
,
00000010
00000010
00000100
00000000
00010000
00001000
01000000
00100000
,
10000000
00010000
00010000
00001000
01000000
00000000
00100000
10000000
,
00010000
00010000
00000100
00000000
00001000
00000001
00000100
00000010
,
00001000
00000000
00000000
00011000
00000000
00000000
01010000
00000000
00000000
11000000
00000000
00000000
00110000
00000000
00000000
00000000
,
01000000
00001000
00001000
00000010
00000100
00000100
00010000
00001000
,
00100000
00010000
00010000
01000000
00010000
00010000
10000000
01000000
,
00100000
00001000
00001000
00000100
00000010
00000010
00001000
00000001
,
00000010
00000000
00000100
00000000
00001000
00000000
00000100
00010000
00000100
00001000
00000001
00001000
00000100
00010000
00001000
01000000
,
00010000
00100000
00100000
10000000
01000000
01000000
00010000
00100000
,
00001000
00010000
00010000
00000010
00010000
00010000
00000100
00000010
,
00000001
00001000
00001000
01000000
00100000
00100000
00001000
00010000
,
00000010
00000100
00000001
00001000
00000100
00010000
00001000
00010000
00001000
01000000
00010000
10000000
01000000
00100000
00010000
10000000
,
00100000
01000000
01000000
00100000
00001000
00001000
00000001
00000100
,
00000010
00010000
00010000
00001000
00010000
00010000
00000010
00001000
,
00000001
00000100
00000100
00001000
00000010
00000010
00000100
00010000
,
00001000
00000000
01000000
00000000
00100000
00000000
01000000
00001000
01000000
00010000
10000000
00010000
00100000
00001000
00010000
00000100
,
00001000
00000010
00000010
00000001
00001000
00001000
01000000
00100000
,
10000000
00010000
00010000
00100000
00010000
00010000
10000000
00100000
,
01000000
00001000
00001000
00000001
00000100
00000100
00000010
00000001
,
00001000
00000100
00000010
00000001
00001000
00000100
00010000
00000100
00010000
00001000
01000000
00010000
10000000
00010000
01000000
00001000
,
00010000
00000010
00001000
00000100
00010000
00001000
00100000
01000000
,
20000000
00100000
30100000
01000000
00001000
00010000
00000010
00001000
,
00000001
00000100
00000010
00010000
00001000
01000000
00010000
01000000
,
00001000
00000000
00010000
00000000
00000010
00000000
00000100
00000001
00001000
00000100
00010000
00001000
00010000
00001000
00100000
00010000
,
10000000
01000000
00100000
00001000
00010000
00000010
00001000
00000001
,
00000020
00000100
00000130
00001000
00000010
00010000
00001000
01000000
,
00100000
10000000
01000000
00100000
00010000
10000000
01000000
10000000
,
00010000
01000000
00100000
10000000
00010000
00100000
00010000
00100000
00001000
00010000
00000100
00001000
00000100
00010000
00001000
01000000
,
00010000
01000000
00001000
00010000
00000100
00000010
00000001
00000100
,
00000020
00001000
00001030
00000001
00000100
00000010
00010000
00001000
,
00100000
00010000
01000000
00001000
00010000
00000010
00001000
00000010
,
00010000
00000000
00001000
00000000
00100000
00000000
01000000
10000000
00010000
01000000
00001000
00010000
00001000
00010000
00000100
00001000
,
00000001
00000010
00001000
00000010
00000001
00000100
00001000
00000100
,
00000020
00001000
00001030
00000100
00000001
00000100
00001000
00000010
,
00010000
00001000
00010000
00000010
00001000
00000010
00010000
00001000
00010000
00000100
00001000
00000100
00010000
00000100
00010000
00001000
,
01000000
00010000
10000000
00010000
01000000
00001000
00010000
00001000
00100000
00010000
00100000
00001000
00010000
00000100
00001000
00000001
,
00000100
00000010
00020000
00000000
00031000
01000000
00100000
10000000
,
02000000
00000000
00000000
00000000
13000000
00000000
00000000
00000000
01000000
00000000
00000000
00100000
00000000
00000000
00010000
00000000
,
01000000
00100000
10000000
00000000
01000000
00100000
00010000
01000000
,
00001000
00020000
00030020
00002030
,
00003100
00000000
00000010
00000000
00000001
00000000
00000000
00000000
00000010
00000000
00000000
00000100
00000000
00000000
00000001
00000000
,
00000100
00000000
00001000
00000000
00000010
00000000
00000000
00000000
00000001
00000000
00000000
00000010
00000000
00000000
00001000
00000000
,
00000100
00010000
00001000
00000000
00100000
00001000
01000000
00010000
,
00100000
02000000
23000000
30200000
,
01300000
00000000
00010000
00000000
10000000
00000000
00000000
00000000
00010000
00000000
00000000
01000000
00000000
00000000
10000000
00000000
,
01000000
00000000
00010000
00000000
00100000
00000000
00000000
00000000
10000000
00000000
00000000
00100000
00000000
00000000
00010000
00000000
,
01000000
00000000
00001000
00000000
00010000
00000000
00000000
00000100
00001000
00000000
00000001
00000000
00000100
00000000
00000010
00000000
,
00001000
00000000
00000001
00001000
00000100
00010000
00001000
00100000
,
00010000
00000000
00000000
00000000
00100000
00000000
00001000
00000000
01000000
00000000
00000000
00100000
00000000
00000000
00010000
00000000
,
00100000
00000000
10000000
00000000
01000000
00000000
00000000
00000000
00010000
00000000
00000000
01000000
00000000
00000000
00100000
00000000
,
00001000
00000000
00010000
00000000
00000100
00000000
00000000
00000010
00000001
00000000
00001000
00000000
00000100
00000000
00010000
00000000
,
00001000
00000000
01000000
00001000
00010000
00000100
00001000
00000010
,
00010000
00000000
00000000
00000000
;

//---------------dance-double - [FG v1.00] NAOKI----------------
#NOTES:
     dance-double:
     [FG v1.00] NAOKI:
     Challenge:
     17:
     1.000000,1.000000,0.121000,0.363000,0.754000:
00000000
00000000
00000000
00000000
,
00000000
00000000
00000000
00000000
,
00000000
00000000
00000000
00000000
,
00000000
00000000
00000000
00000000
,
00002000
00000000
00013000
00000010
00000200
00000000
00001300
00000100
,
00000010
00000000
00010000
00000000
00001000
00000000
00100000
00000000
02000000
00000000
00010000
03000000
00200000
00000000
10000000
00300000
,
01000000
00100000
00010000
10000000
00100000
01000000
10000000
01000000
,
00020000
00000000
00000000
00000000
00130000
00000000
00002000
00003000
00020000
00030000
00000200
00000300
00002000
00003000
00000001
00000000
,
00000020
00000000
00000130
00010000
00002000
00000000
00003010
00001000
,
00010000
00000000
00000100
00000000
00001000
00000000
00000001
00000000
00000200
00000000
00001000
00000300
00000020
00000000
00000001
00000030
,
00000100
00000010
00010000
00001000
00100000
01000000
00010000
01000000
,
10000000
00000000
00010000
00000000
01000000
00000000
00001000
00000000
00020000
00030000
00000020
00000030
00002000
00003000
00000200
00000300
,
00010000
00000000
00001000
01000000
00001000
00000000
00010000
00000000
00001000
00100000
00001000
00000000
01000000
00000000
00100000
00000000
,
10000000
00000000
00010000
10000000
00010000
00000000
01000000
00000000
00010000
10000000
00010000
00000000
00100000
00000000
00001000
00000000
,
00010000
00000000
00000100
00001000
00000100
00000000
00000010
00000000
00000100
00001000
00000100
00000000
00010000
00000000
00000010
00000000
,
00001000
00000000
00000001
00000010
00000001
00000000
00001000
00000000
00000100
00000000
00010000
00000000
00001000
00000000
00100000
00000000
,
00010000
00000000
01000000
00001000
01000000
00000000
00010000
00000000
01000000
00100000
01000000
00000000
00001000
00000000
00010000
00000000
,
00000010
00000000
00001000
00000010
00001000
00000000
00000001
00000000
00001000
00000100
00001000
00000000
00000001
00000000
00000010
00000000
,
00000100
00000000
00010000
00000010
00010000
00000000
00000100
00000000
00010000
00000010
00010000
00000000
00001000
00000000
01000000
00000000
,
00100000
00000000
10000000
00000000
00010000
00000000
00100000
00000000
00001000
00010000
00000100
00001000
00000100
00010000
00001000
01000000
,
00010000
00100000
00001000
02000000
00100000
03100000
10000000
01000000
,
00010000
00000000
01000000
00000000
00100000
00000000
00001000
00000000
00101000
00000000
00000000
00010100
00000000
00000000
00001001
00000000
,
00001000
00000010
00000001
00000010
00001000
00000100
00010000
00000010
,
00000000
00000000
00000010
00000000
00010000
00001000
01000000
00010000
01000000
00001000
00010000
00000100
00001000
00000100
00010000
00001000
,
01000000
00000000
00010000
00000000
00100000
00000000
02000000
00000000
10000000
00000000
13000000
00010000
00000000
00100000
00001000
00000000
,
01000000
00001000
01000000
00000000
00001000
00000000
00010000
00000000
00010100
00000000
00000000
00000011
00000000
00000000
00000100
00010000
,
00000100
00000010
00001000
00000010
00000100
00010000
00001000
00100000
,
00000000
00000000
00100000
00000000
00001000
00010000
00000010
00001000
00000010
00010000
00001000
01000000
00010000
01000000
00001000
00010000
,
00000200
00000300
00001000
00000000
00000001
00000000
00000100
00000000
00000020
00000000
0000M001
00000000
00000130
00000000
00000010
00000000
,
00002000
000000M1
00003100
00000010
00000200
0000M001
00000310
00000100
,
00002000
00000M01
00003010
00000100
00000020
0000M001
00000130
00000010
,
00010000
00000000
00000100
00000000
00001000
00000010
00010000
00001000
01000000
00001000
00010000
00000010
00001000
00000001
00001000
00000100
,
00010000
00001000
01000000
00010000
00200000
100M0000
01300000
00100000
,
00020000
10M00000
01030000
00100000
02000000
100M0000
03100000
01000000
,
00020000
1M000000
00130000
01000000
00200000
100M0000
01300000
00100000
,
00010000
00000000
01000000
00000000
00001000
00000000
00010000
00000000
00000010
00001000
00000010
00010000
00001000
00100000
00010000
00100000
,
00001000
00010000
00001000
00000000
00200000
00300000
00010000
00000000
10000000
00010000
10000000
00000000
00200000
00300000
01000000
00000000
,
00001000
00010000
00001000
00000000
00020000
00030000
00000100
00000000
00001000
00000010
00010000
00001000
00200000
00000000
00310000
00000000
,
01000000
00010000
01000000
00000000
00002000
00003000
00010000
00000000
00000100
00010000
00000100
00000000
00002000
00003000
00000010
00000000
,
00010000
00001000
00010000
00000000
00002000
00003000
00100000
00000000
01000000
10000000
00010000
01000000
00002000
00000000
00013000
00000000
,
00000100
00010000
00000100
00000000
00000020
00000030
00000001
00000000
00001000
00000001
00001000
00000000
00000200
00000300
00000010
00000000
,
00000001
00001000
00000001
00000000
00002000
00003000
00000100
00000000
00010000
00001000
01000000
00010000
20000000
00000000
30100000
00000000
,
01000000
00100000
01000000
00000000
00002000
00003000
00010000
00000000
00000100
00010000
00000100
00000000
00002000
00003000
00000010
00000000
,
00010000
00001000
00010000
00000000
00002000
00003000
00100000
00000000
00010000
01000000
00001000
00010000
00000020
00000000
00000130
00000000
,
00000001
00001000
00000010
00010000
00001000
00000000
00100000
00000000
00010000
01000000
00001000
01000000
00010000
00000000
00100000
00000000
,
00001000
01000000
00010000
10000000
01000000
00000000
00100000
00000000
00010000
01000000
00001000
01000000
00010000
00000000
00000000
00000000
,
01000000
00001000
00010000
00000100
00001000
00000000
00000010
00000000
00010000
00000100
00001000
00000100
00010000
00000000
00000010
00000000
,
00001000
00000100
00010000
00001000
00100000
00000000
01000000
00000000
10000000
00010000
00100000
00001000
00010000
00000000
00000000
00000000
,
00010000
00000100
00001000
00000001
00000100
00000000
00000010
00000000
00001000
00000100
00010000
00000100
00001000
00000000
00000010
00000000
,
00010000
00000100
00001000
00000001
00000010
00000000
00000100
00000000
00010000
00000010
00001000
00000010
00010000
00000000
00010000
00000100
,
00001000
00000001
00000010
00000001
00001000
00000100
00010000
00001000
01000000
00010000
10000000
00010000
01000000
00001000
00010000
00000100
,
00001000
00000001
00001000
00000100
00010000
00001000
00100000
00010000
20000000
30000000
00010000
01000000
00002000
00000000
00103000
00000000
,
00101000
00001000
01000000
00100000
10000000
00000000
00010000
01000000
,
00100000
00100000
01000000
00000000
10000000
00100000
01000000
00010000
,
10000000
00100000
00100000
01000000
10000000
00000000
00010000
00100000
,
00001000
00001000
00000001
00000000
00000010
00000100
00000010
00000000
,
00000001
00001000
00001000
00010000
00000100
00000000
00001000
00000001
,
00000100
00000100
00010000
00000000
00001000
01000000
00010000
10000000
,
00100000
01000000
01000000
10000000
00010000
00000000
00100000
00001000
,
00010000
00010000
00100000
00000000
00001000
00010000
00000100
00000010
,
00000011
00000001
00001000
00001000
01000000
00000000
00010000
01000000
,
00001000
00001000
00000001
00000000
00000010
00000100
00010000
00001000
,
01000000
00010000
00010000
00001000
00100000
00000000
01000000
10000000
,
00010000
00010000
00000100
00000000
00000010
00000001
00000010
00000000
,
00000100
00001000
00001000
01000000
00010000
00000000
10000000
00100000
,
01000000
01000000
10000000
00000000
00010000
00100000
00001000
00010000
,
00000010
00000100
00000100
00010000
00000010
00000000
00001000
00000001
,
00000100
00000100
00001000
00000000
00001010
00010000
00001010
00010000
,
00000100
00000000
00000000
00000000
00000010
00000000
00000000
00000000
00000001
00000000
00000000
00000000
00002000
00003000
00000000
00000000
00000010
00000000
00000000
00000000
00010000
00000000
00000000
00000000
00002000
00003000
00000000
00000000
00100000
00000000
00000000
00000000
00010000
00000000
00000000
00000000
20000000
30000000
00000000
00000000
00100000
00000000
00000000
00000000
01000000
00000000
00000000
00000000
00020000
00030000
00000000
00000000
00000000
00000000
00000000
00000000
00000000
00000000
00000000
00000000
00000000
00000000
00000000
00000000
,
01000000
00001000
01000000
00000000
00010000
00000000
01000000
10000000
01000000
00000000
00100000
00000000
10000000
00000000
00010000
00000000
,
00100000
00010000
00100000
00000000
01000000
00000000
00100000
10000000
00100000
00000000
00010000
00000000
00100000
00000000
00001000
00000000
,
01000000
00001000
01000000
00000000
00010000
00000000
01000000
10000000
01000000
00000000
00010000
00000000
00100000
00000000
00001000
00000000
,
01000000
00000000
00010000
00000000
00100000
00000000
00001000
01000000
00010000
01000000
00001000
00010000
00000100
00001000
00000100
00010000
,
00001000
01000000
00010000
10010000
00010000
01000000
00001000
00010000
,
00010100
00000100
00001000
00001010
00001000
00000100
00000010
00000001
,
00001001
00001000
00000100
00010100
00000100
00000010
00000001
00001000
,
00000010
00001000
00000001
00001000
00000010
00010000
00001000
00100000
00010000
00100000
00001000
00010000
00000010
00001000
00000001
00001000
,
00000010
00010000
00000010
00000000
00000100
00000000
00000010
00000001
00000010
00000000
00000100
00000000
00000001
00000000
00001000
00000000
,
00000100
00001000
00000100
00000000
00000010
00000000
00000100
00000001
00000100
00000000
00001000
00000000
00000001
00000000
00000100
00000000
,
00000010
00000100
00000010
00000000
00001000
00000000
00000010
00000001
00000010
00000000
00001000
00000000
00000100
00000000
00010000
00000000
,
00001000
00000000
01000000
00000000
00010000
00000000
00100000
00001000
00010000
00001000
00100000
00010000
00100000
00001000
00010000
00000100
,
00001000
00000010
00010000
00010100
00010000
00001000
00100000
01000000
,
11000000
10000000
00010000
01010000
00010000
00100000
01000000
10000000
,
10010000
00010000
00100000
01100000
00100000
00001000
00010000
00000010
,
00001000
00000100
00010000
00001000
01000000
00010000
01000000
00100000
10000000
00010000
00100000
00001000
00010000
00001000
00010000
00000010
,
00001000
00000000
00000100
00001000
00000100
00000000
00010000
00000010
00001000
00000000
00000001
00001000
00000100
00000000
00000010
00000100
,
00000001
00000000
00000100
00001000
00000001
00000000
00000010
00000100
00000001
00000000
00000100
00000010
00000001
00000000
00001000
00000000
,
00000100
00000000
00010000
00001000
00010000
00000000
00000010
00001000
00000010
00000000
00001000
00000100
00010000
00000000
00001000
01000000
,
00010000
00000000
00100000
00000000
01000000
00000000
10000000
01000000
00100000
01000000
10000000
00010000
01000000
00001000
00010000
00000010
,
00001000
00000000
00000010
00001000
00000010
00000000
00010000
00001000
01000000
00000000
00010000
01000000
00001000
00000000
00100000
01000000
,
10000000
00000000
00010000
00100000
00010000
00000000
10000000
00100000
10000000
00000000
00010000
01000000
00001000
00000000
00010000
00000000
,
00000020
00000000
00000130
00000001
00001000
00000100
00020000
00000000
00031000
01000000
00010000
10000000
00200000
00000000
10300000
00000000
,
00010000
01000000
00001000
00010000
00000100
00001000
00000100
00000010
00000001
00001000
00000010
00010000
00001000
00010000
00001000
00100000
,
00010000
00000000
01000000
00010000
01000000
00000000
00001000
00100000
00010000
00000000
10000000
00010000
01000000
00000000
00100000
01000000
,
10000000
00000000
01000000
00010000
10000000
00000000
00100000
01000000
10000000
00000000
01000000
00010000
10000000
00000000
00100000
00000000
,
01000000
00000000
00010000
00100000
00010000
00000000
01000000
00001000
01000000
00000000
00010000
00100000
00001000
00000000
00010000
00000010
,
00001000
00000000
00000100
00000000
00010000
00000000
00001000
00100000
00010000
10000000
00010000
00100000
00001000
00010000
00000100
00001000
,
00000001
00000001
00000100
00000100
00000010
00000010
00001000
00000100
,
00010100
00010000
00000100
00000100
00001000
00001000
00000010
00000010
,
00010000
00000100
00001000
00000001
00000010
00000100
00000010
00000001
00001000
00000010
00010000
00000010
00001000
00000001
00000010
00000001
,
00001000
00000100
00000010
00001000
00000010
00000100
00001000
00000001
00000100
00000010
00000001
00000010
00000100
00000001
00001000
00000100
,
00020000
00000000
00030100
00000000
00010000
00001000
00100000
00010000
,
02000000
00000000
00000000
00000000
03010000
00000000
00000000
00000000
01000000
00000000
00000000
01000000
00010000
00000000
10000000
00000000
,
01000000
00000000
00100000
00010000
10000000
00100000
01000000
00001000
,
00200000
00000000
00000000
00300000
00001000
00010000
00001000
01000000
00010000
01000000
00001000
00010000
00000010
00001000
00000001
00000100
,
00000020
00000000
00000000
00000000
00000130
00000000
00000000
00000000
00000010
00000000
00000000
00000010
00000100
00000000
00000001
00000000
,
00001000
00000100
00010000
00000000
00000100
00000000
00000000
00000000
00001000
00000000
00000000
00001000
00000010
00000000
00010000
00000100
,
00001000
00000001
00001000
00000000
00000010
00010000
00000100
00001000
,
00000020
00000000
00000000
00000030
00010000
00001000
00010000
00000010
00001000
00000010
00010000
00001000
01000000
00010000
10000000
01000000
,
00100000
00000000
00010000
00000000
10000000
00000000
00000000
00000000
00100000
00000000
00000000
01000000
00000000
00000000
00010000
00000000
,
10000000
00100000
10000000
00000000
00010000
00000000
00000000
00000000
00100000
00000000
00000000
00001000
00000000
00000000
01000000
00000000
,
00010000
00000000
00100000
00000000
00001000
00000000
00000000
00001000
01000000
00000000
00100000
00000000
10000000
00000000
00010000
00000000
,
02000000
00000000
00000000
03000000
00001000
00010000
00001000
00100000
00010000
00100000
00001000
00010000
00000100
00001000
00000001
00000010
,
00000100
00000000
00010000
00000000
00001000
00000000
00000000
00000000
00100000
00000000
00000000
00010000
00000000
00000000
01000000
00000000
,
00001000
00010000
00001000
00000000
01000000
00000000
00000000
00000000
00010000
00000000
00000000
00100000
00000000
00000000
00001000
00000000
,
01000000
00000000
00010000
00000000
10000000
00000000
00000000
10000000
00100000
00000000
01000000
00000000
00001000
00000000
00010000
00000000
,
00000010
00000000
00000000
00000000
00001000
00000000
00000100
00000000
00010000
00000100
00001000
00000100
00010000
00001000
01000000
00010000
,
10000000
00000000
00000000
00000000
;
