#TITLE:mugenka;
#ARTIST:TOMOYUKI;
#FILE:mugenka.mp3;
#BPM:176.000;
#GAP:88;
#SAMPLESTART:116.011;
#SAMPLELENGTH:12.000;
#CDTITLE:NAOKI_cdtitle.png;
#SINGLE:MANIAC:15:
00000000
00000000
00000000
00000000
B!B0403!2040
A4682!2060
A6482!203!60
9!80A46284
B!B0601!2060
A6482!2040
A4680820
24622846
B!B0409!8040
A4628!8060
A6428!809!60
3!20A46824
B!B0607!8060
A6428!8040
A4620280
(8040608024628482)
68240628
08406802
48260428
02482628
42860482
02604208
62840682
08628428
B8260428
08604802
68240628
02682428
62840682
02406208
42860482
(0080402086482628)
(4240602084802060)
(868020408!8020A000)
(6260402086802040)
(848020608!8020A000)
(4840608024208060)
(262080402!2080A000)
(6860408026208040)
(242080602!2080A000)
(4240602084802060)
(8680204082802000)
(6260402086802040)
(8480206082802000)
(4840608024208060)
(2620804028208000)
66448822
(60608000B0082060)
42268024
88604286
48862084
22608280
62248026
88406284
68842086
22406284
68842086
22406824
62248026
88402820
48862084
22604826
42268024
88604286
(2007009001003000)
42268842
86626682
48862248
(2060402864826428)
62248862
84424482
68842268
(2462846824826428)
62248862
84424482
68842268
(2040602846824628)
42268842
86626682
48862248
(2642864826824628)
46824628
4!42186482
64286282
(6080204826284682)
46284682
4!48726428
64826828
(6284826284628428)
64826428
6!62384682
46284282
(4080206824286482)
68486242
6!68924868
(4846864246264642)
(8628482628482682)
462!20A468
(2!2000A00020040080)
26802462
804!40B!609!80
(A040800040020060)
(2040800060080040)
28602642
806!60B!407!80
(A060800060020040)
(2060800040080060)
(2080400680204060)
20826428
(6000802040080060)
(8040200060020040)
(8020600420806040)
80284682
40000000
;
#SINGLE:ANOTHER:12:
00000000
00000000
00000000
00000000
8!8020A080
26824!40B!60
30280840
2!20A64826
8!8020A080
24826!60B!40
1028086!60
30842860
2!2080A020
84286!60B!40
70820260
8!80A48264
2!2080A020
86284!40B!60
9082024!40
70206824
80820604
02028600
20280406
08082400
20280604
08082600
80820406
02028400
B0680802
02046280
40480802
02064280
60620208
08046820
40420208
08064826
42406260
82464820
62604240
82646820
48406860
28464280
68604840
28646280
A2804240
62842860
82806260
42862840
28204840
68248260
26264242
86284280
B0A08010
30804680
B0A02070
90204620
B0A08030
10806480
B0A02090
70206420
B0842090
24803010
B0862070
26801030
B0248030
84209070
B0268010
86207090
(2004006002008000)
70420428
62062084
68068086
48048260
90620628
42042086
48048026
42862840
10480482
68068024
62062084
68068240
30680682
48048026
42042086
48264286
20706090
40108030
28464280
68248264
20904070
60308010
28646280
42864826
80106030
40702090
82464820
62842862
84846868
24246262
8!807!40B!609!80
92846824
80206000
80204000
60408420
40608648
20804000
20806000
40602680
60482642
80204000
80206000
40608620
60408264
20806000
20804000
60402480
40602682
40000000
;
#SINGLE:BASIC:6:
00000000
00000000
00000000
00000000
8!80007!4000
1!2000A060
20208080
40006000
8!80009!6000
3!2000A040
20208080
60004000
2!20001!4000
7!8000A060
80802020
40006000
2!20003!6000
9!8000A040
80802020
60004060
B0002000
80406080
A0002000
40802060
B0008000
20406020
A0008000
40208060
B0408000
20604020
A0008000
60208040
B0002000
80604080
A0002000
60802040
B0602020
80402!2020
40402020
80602!2020
60608080
20408!8080
40408080
20608!8080
B0608020
40406020
80804060
20208040
B0602080
40406080
20204060
80801030
B!602000B!40
20007020
6!608000B!40
800070A0
4!402000B!60
20009020
4!408000B!60
80003080
A!80200020
A0604020
8!80200020
A0406020
A!20800080
A0406080
2!20800080
A0604080
2!20000020
80404080
60602040
40206060
80204060
20404020
60608040
40806060
20804020
80606080
40402060
60204040
80206080
20404020
60608040
40806060
20804020
90806020
70804020
90607040
2!20601000
70804020
90806020
70409060
2!20403000
10204080
30206080
10403060
8!80409000
30206080
10204080
30601040
8!80607000
90006000
40004000
80008000
20002000
70004000
60006000
80008000
20002000
40004000
60006000
20002000
80008000
30006000
40004000
20002000
80008000
60000000
;
#SINGLE:BEGINNER:2:
00000000
00000000
00000000
00000000
8!80008000
2!20002000
6!60006000
4!40004000
2!20002000
8!80008000
6!60006000
4!40004000
80008000
20002000
60006000
40004000
20002000
80008000
60006000
40004000
80000000
80000000
40004000
60006000
80000000
80000000
60006000
40004000
20000000
20000000
40004000
60006000
20000000
20000000
60006000
40004000
80808000
20006000
80808000
20004000
20202000
80006000
20202000
80004000
60606000
80002000
40404000
80002000
60606000
20008000
40404000
20008000
60600040
40008080
40400060
60008080
60600040
40002020
40400060
60002020
80800020
20006060
80800020
20004040
20200080
80006060
20200080
80004040
2!20000020
80008000
60006000
40004000
80002000
80008000
40004000
60006000
80008000
20002000
40004000
60006000
20008000
20002000
60006000
40004000
20002000
80808080
60604040
80002000
B000A000
80808080
40406060
80002000
B000A000
20202020
60604040
20008000
B000A000
20202020
40406060
20008000
B!B0000000
B0000000
80000000
20000000
60000000
40000000
20000000
80000000
60000000
20000000
80000000
40000000
60000000
80000000
20000000
40000000
60000000
B0000000
;
