#TITLE:攻撃戦だ;
#SUBTITLE:;
#ARTIST:北朝鮮;
#TITLETRANSLIT:;
#SUBTITLETRANSLIT:;
#ARTISTTRANSLIT:;
#CREDIT:;
#BANNER:kongyo.png;
#BACKGROUND:jacket.png;
#LYRICSPATH:;
#CDTITLE:215edit.png;
#MUSIC:kongyo.mp3;
#OFFSET:-0.580;
#SAMPLESTART:40.555;
#SAMPLELENGTH:12.000;
#SELECTABLE:YES;
#BPMS:0.000=155.600,262.500=188.000,264.000=155.600,400.000=153.600;
#STOPS:135.500=3.200
,261.000=0.200
,261.500=0.200
,262.000=0.200
;
#BGCHANGES:0.000=kongyo.avi=1.000=1=0=1,
99999=-nosongbg-=1.000=0=0=0 // don't automatically add -songbackground-
;

//---------------dance-single - ----------------
#NOTES:
     dance-single:
     :
     Hard:
     13:
     0.520,0.558,0.391,0.140,0.006:  // measure 1
0000
0000
0000
0000
,  // measure 2
0000
0000
0000
0000
,  // measure 3
0000
0000
0000
0000
,  // measure 4
0000
0000
0000
0000
,  // measure 5
0010
0000
1000
0000
0010
0100
0000
0002
,  // measure 6
0000
0203
0320
2030
,  // measure 7
3002
0000
0003
0000
0010
0100
0010
0001
,  // measure 8
0200
0000
0300
0000
0000
0001
0100
0001
,  // measure 9
1000
0001
0100
0001
1000
0100
1000
0001
,  // measure 10
1000
0100
1000
0001
1000
0010
0100
0000
,  // measure 11
1001
0000
0001
0010
0100
1000
0010
0100
,  // measure 12
0010
1000
0100
0010
0001
0000
1001
0000
,  // measure 13
0100
0000
0001
0100
0010
1000
0100
1000
,  // measure 14
0010
1000
0001
0100
0010
1000
0010
0000
,  // measure 15
1001
0000
0100
0010
1000
0010
0100
0001
,  // measure 16
0010
0100
0010
0100
1000
0000
1001
0000
,  // measure 17
0100
0010
1000
0100
1000
0001
0010
0100
,  // measure 18
2000
0000
3000
0000
,  // measure 19
0002
0000
0103
0000
,  // measure 20
2000
3100
0000
0000
,  // measure 21
0010
0000
0100
0000
0010
0000
1000
0002
,  // measure 22
0000
0000
0003
0000
,  // measure 23
0010
0000
0100
0000
0010
1000
0000
0000
,  // measure 24
0100
0000
0010
0000
0001
0000
1000
0002
,  // measure 25
0000
0000
0003
0000
,  // measure 26
1000
0100
0010
0001
1000
0100
1001
0000
,  // measure 27
0110
0000
0001
1000
0010
0100
0010
1000
,  // measure 28
0010
0100
0110
0110
,  // measure 29
0010
0000
1000
0010
0100
0010
1000
0001
,  // measure 30
0010
0100
0110
0110
,  // measure 31
1000
0000
0001
0000
0010
0100
0000
0000
,  // measure 32
0001
0000
0010
0000
0100
0000
1000
0001
,  // measure 33
0000
0100
0001
1000
,  // measure 34
1000
0001
0010
0100
0010
0001
1000
0001
,  // measure 35
1001
0000
0010
0100
1000
0010
0100
0001
,  // measure 36
0010
0100
0010
0001
0100
0000
1001
0000
,  // measure 37
0100
0000
0001
0010
0100
0010
0100
1000
,  // measure 38
0100
0010
0100
1000
0100
0010
0001
0000
,  // measure 39
1001
0000
1000
0010
0001
0010
1000
0100
,  // measure 40
0001
0100
1000
0010
0001
0000
1001
0000
,  // measure 41
0001
0100
1000
0100
0001
0100
1000
0100
,  // measure 42
0002
0000
0003
0000
,  // measure 43
1010
0000
0101
0000
,  // measure 44
0011
1100
0000
0000
,  // measure 45
1010
0000
0011
0000
0100
0000
0010
0002
,  // measure 46
0000
0003
0000
0000
,  // measure 47
0100
0000
0010
0000
0001
0100
1000
0000
,  // measure 48
0001
0010
1000
0100
0001
0100
1000
0010
,  // measure 49
0100
0000
0001
1000
0001
0000
0110
0000
,  // measure 50
0100
0010
0100
0001
1000
0100
0010
0000
,  // measure 51
0001
0000
1000
0100
0010
0001
0100
0001
,  // measure 52
0010
0100
0110
0110
,  // measure 53
1000
0000
0001
0010
0100
1000
0010
0100
,  // measure 54
0010
0100
0110
0110
,  // measure 55
0001
0000
1000
0000
0010
1000
0000
0000
,  // measure 56
1001
0000
0110
0000
0010
0000
0001
0010
,  // measure 57
0100
1000
0100
0000
1000
0010
0001
0100
,  // measure 58
0010
1000
0001
0100
0010
1000
0010
0100
,  // measure 59
0002
0000
1003
0000
,  // measure 60
0011
2200
3300
0000
,  // measure 61
0010
0001
0100
0000
0010
1000
0100
0000
,  // measure 62
0011
0000
1100
0000
1000
0100
0010
0001
,  // measure 63
0011
0000
0100
0000
0010
0100
0000
0000
,  // measure 64
2000
0000
3010
0000
0002
0000
1003
0010
,  // measure 65
0000
2000
3001
0002
,  // measure 66
1003
0000
0110
1001
0110
1001
0000
0000
,  // measure 67
0000
0000
0010
1000
0100
0010
0002
0000
,  // measure 68
0000
0003
0000
0110
,  // measure 69
0001
0010
0100
1000
0010
0001
0010
1000
,  // measure 70
0100
0010
0001
0000
1001
0000
0010
0000
,  // measure 71
1000
0100
0001
0100
1000
0010
0100
0001
,  // measure 72
0100
1000
0100
0001
1000
0000
1001
0000
,  // measure 73
0001
0010
0001
0010
0100
1000
0100
1000
,  // measure 74
0001
0010
0001
0000
1001
0000
1000
0100
,  // measure 75
1000
0100
0010
0001
0010
0001
0020
0000
,  // measure 76
0000
0030
0000
0011
,  // measure 77
0000
1100
0000
1010
,  // measure 78
0101
0000
0000
0011
,  // measure 79
1100
0000
0100
0000
0010
0200
0000
0000
,  // measure 80
0000
0300
0000
0000
0000
0000
0010
1000
,  // measure 81
0100
0000
0010
0001
0100
0000
0010
1000
,  // measure 82
0010
1000
0001
0100
0001
0100
0010
1000
,  // measure 83
0100
1000
0001
0010
0001
0010
0100
1000
,  // measure 84
0010
0001
0010
1000
0100
0000
1001
0000
,  // measure 85
0001
0100
1000
0100
0001
1000
0010
0000
,  // measure 86
0100
0110
0110
0001
,  // measure 87
1000
0100
0001
0100
1000
0001
0010
0000
,  // measure 88
0100
0110
0110
1000
,  // measure 89
0001
0000
0010
1000
0000
0000
1001
0000
,  // measure 90
1001
0000
0010
0000
0001
0010
1000
0010
,  // measure 91
0001
0010
1000
0010
0001
0100
1000
0100
,  // measure 92
0001
0100
0010
0100
1000
0000
0101
0000
,  // measure 93
0010
1000
0010
1000
0001
0100
0010
0000
,  // measure 94
0100
0110
0110
0100
,  // measure 95
0010
0001
0010
0001
0100
0001
0010
0000
,  // measure 96
0100
0110
0110
1000
,  // measure 97
0100
0000
0010
0001
0000
0000
1000
0010
,  // measure 98
1000
0001
0100
0001
0010
0001
0010
0100
,  // measure 99
1000
0100
1000
0010
0100
0001
0100
1000
,  // measure 100
0100
0001
0010
1000
0010
0001
1001
0000
,  // measure 101
0110
1001
0110
1001
,  // measure 102
1000
0100
0010
0001
0010
0000
0000
0000
1001
0000
0000
0000
0000
0000
0000
0000
;

//---------------dance-single - ----------------
#NOTES:
     dance-single:
     :
     Medium:
     12:
     0.436,0.527,0.281,0.159,0.006:
0000
0000
0000
0000
,
0000
0000
0000
0000
,
0000
0000
0000
0000
,
0000
0000
0000
0000
,
0000
0000
0000
0000
,
0000
0000
0000
0000
,
0000
0000
0000
0000
,
0000
0000
0000
0000
,
0000
0000
0000
0000
,
0000
0000
0000
0000
,
1000
0000
0010
0000
0100
0001
0100
0000
,
0010
0000
0100
1000
0100
0000
0000
0000
,
0001
0000
0100
0000
0010
0100
1000
0000
,
0010
1000
0010
0100
0010
0000
0000
0000
,
0001
0000
0010
0000
0001
0100
1000
0000
,
0100
0010
0100
0001
0100
0000
0000
0000
,
1000
0100
0010
0100
1000
0001
0010
0100
,
0020
0000
0030
0000
,
0020
0000
0130
0000
,
0020
0130
0000
0000
,
0010
0000
0100
0000
0010
0001
0100
0000
,
0001
0010
0100
0010
0100
1000
0100
0000
,
0001
0000
0100
0000
0010
1000
0010
0000
,
0100
0001
0100
0000
0100
0010
0001
0100
,
0010
1000
0010
1000
,
0200
0000
0300
0000
,
0011
0000
1100
0000
,
0010
0100
0020
0130
,
1010
0000
0101
0000
,
0010
0100
0020
0130
,
0010
0000
0100
0000
0010
0100
0000
0000
,
1001
0000
1001
0000
0100
0000
0010
1000
,
0100
1000
0010
0100
0001
0010
1000
0000
,
0001
0100
0001
1010
,
0100
0000
0010
0000
0100
0010
1000
0000
,
0011
0000
0010
1000
0020
0000
0030
0000
,
0100
0000
0001
0000
0100
0010
1000
0000
,
0001
0010
0100
1000
0020
0000
0030
0000
,
0100
0000
0001
0000
0010
1000
0010
0000
,
0100
0000
0010
0001
1000
0000
0000
0000
,
0001
0100
1000
0100
0010
1000
0001
0010
,
0200
0000
0300
0000
,
0020
0000
0130
0000
,
0020
0130
0000
0000
,
0100
0000
0010
0000
0001
1000
0010
0000
,
0100
1000
0100
0000
0010
0001
0100
0001
,
1000
0000
0010
0000
0100
0001
1000
0000
,
0100
0010
1000
0001
0100
0010
0100
0001
,
0010
1001
0101
1010
,
1000
0100
0010
0001
0010
0100
1000
0100
,
0011
0000
1001
0000
,
0010
0100
0020
0130
,
1001
0000
0110
0000
,
0010
0100
0020
0130
,
0010
0000
0100
0000
0010
0100
0000
0000
,
1010
0000
1010
0000
0001
0000
0100
0010
,
0001
0100
0001
0010
0001
1000
0001
0000
,
1010
0001
1010
0100
,
0202
0303
2020
3030
,
1100
0011
0001
1001
,
1000
0000
0001
0000
0100
0000
0010
1000
,
0010
0000
0101
0000
0010
0100
0010
0001
,
0100
0000
1010
0000
0100
0001
0100
0000
,
0110
0000
0001
0010
1000
0010
0001
0100
,
0010
0000
1001
0000
0010
1000
0010
1000
,
0010
0000
0110
0110
0110
0000
0000
0000
,
0000
0000
0100
0010
0100
0010
0200
0000
,
0000
0000
0300
0010
,
0010
0000
0010
1000
0100
0000
0001
0000
,
0010
0001
1000
0000
0101
0000
0101
0000
,
0010
1000
0001
1000
0010
0100
0001
0000
,
0010
0001
1000
0000
0010
0000
0100
0000
,
0010
0100
1000
0001
0100
0000
0010
0100
,
0010
0100
1000
0000
0010
0000
0001
0010
,
0100
1000
0010
0100
0010
0100
0001
0000
,
0001
0100
0100
0020
,
0000
0130
0000
0020
,
0130
1001
1001
0010
,
0100
0000
0001
0000
0100
0010
1000
0000
,
0001
0000
0001
0010
0100
1000
0100
0000
,
0010
0000
0100
0000
0010
0000
1000
0100
,
1000
0001
0100
0010
0100
0000
0001
0000
,
1000
0000
0001
0000
1000
0000
0001
0100
,
1000
0100
0001
0100
0010
1000
0101
0000
,
0000
1010
0000
0010
,
0100
0020
0130
0110
,
0000
1001
0000
0010
,
0100
0020
0130
0010
,
0100
0000
0010
0100
0000
0000
0010
1000
,
0001
0000
0100
0001
0010
0001
0100
0010
,
1000
0100
0010
0001
0010
0100
1000
0000
,
0001
1000
1001
1010
,
0000
0101
0000
0010
,
0100
0020
0130
0011
,
0000
1100
0000
0010
,
0100
0020
0130
0010
,
0100
0000
0010
0100
0000
0000
1000
0010
,
0001
0000
1000
0010
0001
0010
1000
0001
,
0100
0010
0100
0001
0100
1000
0100
0001
,
0010
1000
0010
0001
0100
0010
1001
0000
,
0020
0130
0020
0130
,
0001
1000
0001
1000
0001
0000
0000
0000
1001
0000
0000
0000
0000
0000
0000
0000
;

//---------------dance-single - ----------------
#NOTES:
     dance-single:
     :
     Easy:
     7:
     0.245,0.402,0.085,0.116,0.000:
0000
0000
0000
0000
,
0000
0000
0000
0000
,
0000
0000
0000
0000
,
0000
0000
0000
0000
,
0000
0000
0000
0000
,
0000
0000
0000
0000
,
0000
0000
0000
0000
,
0000
0000
0000
0000
,
0000
0000
0000
0000
,
0000
0000
0000
0000
,
0001
0010
0100
1000
,
0001
0100
0020
0030
,
0100
0001
1000
0010
,
0100
0010
0200
0300
,
0001
0010
0100
1000
,
0100
0010
0002
0003
,
0100
0010
0100
0010
,
0200
0000
0300
0000
,
0010
0000
0100
0000
,
0010
0100
0000
0000
,
1000
0100
0010
0100
,
1000
0001
0010
0100
,
1000
0000
0001
0000
,
0100
0000
0010
0000
,
1000
0001
0100
0001
,
1010
1010
0101
0101
,
0001
0000
0000
0000
,
0010
0100
0000
0000
,
1001
0000
0000
0000
,
0010
0100
0000
0000
,
1000
0001
1000
0001
,
0100
0001
0010
0100
,
0200
0000
0000
0000
,
0300
0000
0000
0000
,
1000
0010
0100
0001
,
0100
0010
2000
3000
,
0001
0010
0100
0010
,
0001
0100
0020
0030
,
1000
0100
0010
0100
,
1000
0001
0200
0300
,
0010
0100
0010
1000
,
0020
0000
0030
0000
,
0010
0000
0100
0000
,
0010
0100
0000
0000
,
0001
0100
0010
0100
,
1000
0010
1000
0001
,
0100
0000
0010
0000
,
0010
0000
0100
0000
,
0010
0100
0010
0100
,
1000
0001
1000
0001
,
1010
0000
0000
0000
,
0010
0100
0000
0000
,
1010
0000
0000
0000
,
0010
0100
0000
0000
,
0001
1000
0001
0100
,
0001
0010
0001
0010
,
0100
0000
0000
0000
,
0200
0000
0000
0000
,
0310
0000
0100
0000
,
0010
0100
0000
0000
,
1000
0001
0001
1000
,
1000
0010
0100
0001
,
0200
0000
0320
0000
,
2030
0000
3002
0000
,
0103
0010
0100
0001
,
0200
0000
0300
0000
,
0000
0000
0000
0000
,
0000
0000
0000
0010
,
0100
1000
0001
0100
,
0001
0200
0300
0010
,
0100
0001
0100
1000
,
0010
0002
0003
0100
,
0010
0001
0100
1000
,
0100
0002
0003
1000
,
0010
1000
0100
0020
,
0000
0030
0000
0010
,
0000
0100
0000
0010
,
0100
0000
0000
1000
,
0001
0100
0001
0010
,
0001
0100
0001
0001
,
0010
1000
0010
0001
,
0010
1000
1010
0001
,
0000
0100
0000
0101
,
0000
0000
0000
1010
,
0000
0000
0000
0010
,
0100
0000
0000
0110
,
0000
0000
0000
0010
,
0100
0000
0000
0010
,
0000
0100
0000
1000
,
0001
0010
0100
0001
,
1000
0100
1000
0001
,
0010
0100
1000
0101
,
0000
0000
0000
0010
,
0100
0000
0000
1010
,
0000
0000
0000
0010
,
0100
0000
0000
1000
,
0100
1000
0001
0100
,
1000
0100
0001
0100
,
0010
1000
0001
0100
,
0010
0100
1000
0100
,
0000
0010
0000
0010
,
0010
0110
0000
0000
;

//---------------dance-single - ----------------
#NOTES:
     dance-single:
     :
     Beginner:
     4:
     0.130,0.248,0.043,0.104,0.000:
0000
0000
0000
0000
,
0000
0000
0000
0000
,
0000
0000
0000
0000
,
0000
0000
0000
0000
,
0000
0000
0000
0000
,
0000
0000
0000
0000
,
0000
0000
0000
0000
,
0000
0000
0000
0000
,
0000
0000
0000
0000
,
0000
0000
0000
0000
,
0010
0000
0000
0000
,
0100
0000
0000
0000
,
1000
0000
0000
0000
,
0010
0000
0000
0000
,
0100
0000
0000
0000
,
0001
0000
0000
0000
,
1000
0000
0000
0000
,
1001
0000
0000
0000
,
0010
0000
0100
0000
,
0010
0100
0000
0000
,
0001
0000
0000
0000
,
1000
0000
0000
0000
,
0021
0000
0000
0000
,
0000
0000
0000
0000
,
0230
0000
0000
0000
,
0300
0000
0000
0000
,
1000
0000
0000
0000
,
0010
0100
0000
0000
,
0001
0000
0000
0000
,
0010
0100
0000
0000
,
0010
0000
0100
0000
,
0010
0000
0200
0000
,
0000
0000
0000
0000
,
0000
0000
0000
0300
,
1000
0000
0000
0000
,
0001
0000
0000
0000
,
0100
0000
0000
0000
,
0001
0000
0000
0000
,
0010
0000
0000
0000
,
0100
0000
0000
0000
,
0010
0000
0000
0000
,
1001
0000
0000
0000
,
0010
0000
0100
0000
,
0010
0100
0000
0000
,
0001
0000
0000
0000
,
0100
0000
0000
0000
,
0002
0000
0000
0000
,
0000
0000
0000
0000
,
2003
0000
0000
0000
,
3000
0000
0000
0000
,
0010
0000
0000
0000
,
0010
0100
0000
0000
,
0100
0000
0000
0000
,
0010
0100
0000
0000
,
0001
0000
0000
0000
,
1000
0000
0000
0000
,
2002
0000
0000
0000
,
3003
0000
0000
0000
,
0010
0000
0100
0000
,
0010
0100
0000
0000
,
0001
0000
0000
0000
,
1000
0000
0000
0000
,
0001
0000
1000
0000
,
0001
0010
1000
0010
,
0002
0000
0000
0000
,
0000
0000
0003
0000
,
0000
0000
0000
0000
,
0000
0000
0000
1000
,
0000
0010
0000
1000
,
0010
0001
0000
1000
,
0000
0100
0000
0001
,
0010
1000
0000
0001
,
0000
0100
0000
0010
,
0000
0100
0000
0020
,
0000
0030
0000
2002
,
0000
0000
3003
0010
,
0000
0100
0000
0010
,
0100
0000
0000
1000
,
0000
0001
0000
0010
,
0000
0000
0000
0100
,
0000
0100
0000
0100
,
0000
0100
0000
0020
,
0000
0000
0030
0000
,
0000
0000
0000
0001
,
0000
0000
0000
0010
,
0100
0000
0000
1000
,
0000
0000
0000
0010
,
0100
0000
0000
0001
,
0000
0010
0000
0100
,
0100
0100
0100
2002
,
0000
0000
0000
3003
,
0000
0000
0000
0100
,
0000
0000
0000
0010
,
0100
0000
0000
0001
,
0000
0000
0000
0010
,
0100
0000
0000
0001
,
0010
1000
0010
0001
,
0100
1000
0100
0002
,
0000
0000
0003
1000
,
0000
0000
0000
1000
,
0000
0100
0000
0001
,
0000
0000
2002
0000
0000
3003
0000
0000
;
