#TITLE:攻撃戦だ;
#ARTIST:北朝鮮;
#FILE:kongyo.mp3;
#BPM:155.600;
#GAP:580;
#SAMPLESTART:40.555;
#SAMPLELENGTH:12.000;
#CDTITLE:215edit.png;
#FREEZE:542.000=3200.000,1044.000=200.000,1046.000=200.000,1048.000=200.000;
#CHANGEBPM:1050.000=188.000,1056.000=155.600,1600.000=153.600;
#SINGLE:MANIAC:13:
00000000
00000000
00000000
00000000
80408206!6
003!20A!807!40
B!60608286
2!20200626
46264246
42464820
B0682482
842860B0
20628424
84628480
B0284826
828240B0
28424682
4!40004000
6!60003000
4!40100000
80208046!6
00006000
80208400
20806046!6
00006000
428642B0
A0648284
8020A0A0
80482846
8020A0A0
40608200
60802046
00206040
46828646
B0824826
828620B0
20682824
28242860
B0486842
624860B0
62426242
6!60006000
70003000
90100000
70902086!6
00600000
20806240
68426248
206460A0
28264280
60428626
8020A0A0
40682482
8020A0A0
60408400
B0A08068
24204862
84628482
6!6000B000
901!101000
86208420
90104286
90208200
4!40706!60B8
004!40B06!60
B0ABAB00
0084286!60
006000A0
68248684
2860B080
42624826
242640B0
68682424
6860B042
4286868!80
00800090
00100070
30000090
102082!200
02000084
20862084
84626284
24686824
868420B0
62426480
20A0A060
42624680
20A0A040
608400B0
B0806848
68486242
62824030
84846280
20A0A020
86862680
20A0A040
20860048
46268682
42482624
268486B0
A0B0A0B0
(42868000B0000000)
;
#SINGLE:ANOTHER:12:
00000000
00000000
00000000
00000000
00000000
00000000
00000000
00000000
00000000
00000000
40802620
80242000
60208240
84828000
60806240
28262000
42824682
8!80008000
8!8000A000
8!80A00000
80208620
68282420
60208480
26202862
80408040
2!20002000
90001000
80208!80A0
70003000
80208!80A0
80208200
B0B02084
24826840
60206070
20802840
90848!8080
20602840
68248!8080
20608480
20864000
62428468
2!20002000
8!8000A000
8!80A00000
20806480
24208626
40802640
28462826
80B03070
42868242
9000B000
80208!80A0
B000A000
80208!80A0
80208200
70706028
62686460
70607020
3!30307!7070
109060B0
40602084
80308286
20702620
A0684862
80B08484
80AAA000
0028282!20
00002080
80842060
86403030
84648260
86408020
82462082
82408068
24828260
6020208!80
00A0008!80
A0B0B080
20602840
60682420
80208042
46282060
40604062
42628430
00700080
208!80A0A0
00B00080
208!80A080
20820084
60268628
42868240
6040B070
00300080
208!80A090
00100080
208!80A080
20820048
60486846
28262426
848628B0
8!80A08!80A0
(64646000B0000000)
;
#SINGLE:BASIC:7:
00000000
00000000
00000000
00000000
00000000
00000000
00000000
00000000
00000000
00000000
60802040
60208!8080
20604080
20802!2020
60802040
20806!6060
20802080
2!20002000
80002000
80200000
40208020
40608020
40006000
20008000
40602060
70703030
60000000
80200000
B0000000
80200000
40604060
20608020
2!20000000
20000000
40802060
20804!4040
60802080
60208!8080
40208020
40602!2020
80208040
8!80008000
80002000
80200000
60208020
40804060
20008000
80002000
80208020
40604060
70000000
80200000
70000000
80200000
60406020
60806080
20000000
2!20000000
A0002000
80200000
40606040
40802060
2!2000A!8000
7!4000B!6000
30802060
2!20002000
00000000
00000080
20406020
602!202080
20602040
806!606020
80602040
206!606040
8040208!80
00800080
00200080
20000040
60206080
60206060
80408060
80407060
00200030
00000070
00000080
200000A0
00000080
20000080
00200040
60802060
40204060
80204030
00000080
20000070
00000080
20000040
20406020
40206020
80406020
80204020
00800080
80A00000
;
#SINGLE:BEGINNER:4:
00000000
00000000
00000000
00000000
00000000
00000000
00000000
00000000
00000000
00000000
80000000
20000000
40000000
80000000
20000000
60000000
40000000
B0000000
80002000
80200000
60000000
40000000
9!80000000
00000000
A!20000000
20000000
40000000
80200000
60000000
80200000
80002000
80002!2000
00000000
00000020
40000000
60000000
20000000
60000000
80000000
20000000
80000000
B0000000
80002000
80200000
60000000
20000000
6!60000000
00000000
B!40000000
40000000
80000000
80200000
20000000
80200000
60000000
40000000
B!B0000000
B0000000
80002000
80200000
60000000
40000000
60004000
60804080
6!60000000
00006000
00000000
00000040
00800040
80600040
00200060
80400060
00200080
0020008!80
008000B!B0
0000B080
00200080
20000040
00600080
00000020
00200020
0020008!80
00008000
00000060
00000080
20000040
00000080
20000060
00800020
202020B!B0
000000B0
00000020
00000080
20000060
00000080
20000060
80408060
2040206!60
00006040
00000040
00200060
00B!B00B00
;
