#TITLE:黄昏リボルバー;
#SUBTITLE:;
#ARTIST:JazzyKid;
#TITLETRANSLIT:TasogareRevolver;
#SUBTITLETRANSLIT:;
#ARTISTTRANSLIT:;
#CREDIT:;
#BANNER:rbn_.jpg;
#BACKGROUND:JazzyKid2013.jpg;
#LYRICSPATH:;
#CDTITLE:215edit.png;
#MUSIC:{o[.mp3;
#OFFSET:-0.760;
#SAMPLESTART:65.346;
#SAMPLELENGTH:12.000;
#SELECTABLE:YES;
#BPMS:0.000=178.000,96.000=178.300,128.000=178.000,306.000=140.000,307.500=100.000;
#STOPS:;
#BGCHANGES:;

//---------------dance-single - From JazzyKid----------------
#NOTES:
     dance-single:
     From JazzyKid:
     Hard:
     14:
     0.690,0.641,0.695,0.253,0.018:
1001
0000
0110
0000
1000
0010
0000
0001
,
0000
0100
0010
0000
1000
0100
0010
0001
,
0010
0000
1010
0000
0100
0010
0000
1000
,
0000
0010
0100
0001
0100
1010
0000
0000
,
1001
0000
1001
0000
0001
0010
0100
1000
,
0000
0010
0100
0000
0010
1000
0001
1000
,
0010
0000
1100
0000
0010
0001
0000
1010
,
0000
0100
0010
0000
0011
0000
1100
0000
,
0100
0010
0001
0010
0001
1000
0100
1000
,
0100
0010
0000
0011
0000
0010
0011
0000
,
0001
0010
0100
1000
0010
0100
0010
0100
,
0010
1010
0000
0100
0000
0100
0101
0000
,
0010
1000
0010
1000
0001
0100
0001
0020
,
0000
0230
0000
2300
0000
3010
0000
0010
,
2020
0000
0000
3030
0000
1001
0000
0022
,
0000
0033
0110
1100
,
0010
0001
0010
0001
1000
0100
1000
0100
,
0010
0100
0000
0011
0000
1000
1100
0000
,
0010
1000
0010
1000
0001
0100
0001
0100
,
0010
1000
0000
1010
0000
0100
0101
0000
,
0010
0100
1000
0001
0100
0010
1000
0002
,
0000
0023
0000
0230
0000
2300
0000
3010
,
0220
0000
0000
0330
0000
0110
0000
2002
,
0000
3003
0000
0000
0010
0000
0110
0000
,
1020
0000
0130
0000
0002
0000
0103
0010
,
0000
1000
0200
0000
0310
0000
0001
1000
,
0001
0000
0020
0000
0130
0000
0010
0100
,
0000
0001
0010
0001
0100
0000
0020
0000
,
1030
0000
0200
0000
1300
0000
0010
0001
,
0000
0100
1000
0000
1000
0100
1000
0010
,
0100
0000
0020
0000
0130
0000
0001
0100
,
0000
0010
0100
0000
1001
0000
1001
0000
,
1000
0100
1000
0100
0010
0100
1000
0001
,
0010
0100
1000
0010
0100
0001
1000
0100
,
1000
0001
0100
0010
0100
0001
0010
0100
,
0010
0001
1000
0100
1000
0010
0100
0001
,
0101
0000
1001
0000
0010
0001
0010
0100
,
1000
0000
1001
0000
0010
1000
0100
0010
,
0001
0000
1001
0000
0010
0100
1000
0100
,
0010
0000
0101
0000
0010
0100
1001
0000
,
1002
0100
0010
0100
,
1000
0100
1000
0103
,
2001
0010
0001
0100
,
0010
0100
0001
3010
,
1000
0000
0010
1010
0000
1000
0100
0010
,
0001
0000
0010
0011
0000
0010
0100
1000
,
0001
0100
0010
1010
0000
0100
0010
0011
,
0000
0001
1000
0010
0110
0000
1001
0000
,
1020
0100
1000
0100
,
0001
0100
1000
0130
,
0210
0001
0010
1000
,
0010
0001
0010
0301
,
0110
0000
1000
1010
0000
0100
0101
0000
,
0001
0010
0100
0110
0000
1000
0100
0010
,
0001
0010
0100
0110
0000
0001
0100
0110
,
0000
1000
0100
0010
0110
0000
1001
0000
,
1010
0000
0101
0000
0100
0101
0000
1010
,
0000
1000
0100
0010
0001
0010
0100
1000
,
0011
0000
1010
0000
0100
0010
0001
0011
,
0000
0010
1000
0000
0100
1000
0001
0100
,
0010
0000
0100
0001
0000
0001
0010
0100
,
1000
0010
0000
0011
0000
1100
0000
0100
,
0110
0000
1001
0000
0001
0010
0100
1000
,
0000
0100
0001
0000
0010
1000
0100
0010
,
0001
0000
0101
0000
0010
0100
1000
0010
,
0000
1000
0100
0010
0001
1001
0000
0000
,
1010
0000
0101
0000
0001
0010
0100
1000
,
0000
0001
1000
0000
0010
0001
0010
0100
,
1000
0000
1010
0000
0100
0010
1000
0010
,
0000
0001
0100
0000
0010
1000
0000
0001
,
0100
0000
0101
0000
1000
0100
0010
0001
,
0000
0100
1000
0000
0010
0100
1000
0010
,
0100
0001
1000
0100
0000
0010
0001
0000
,
0010
1000
0000
0100
0001
0101
0000
0000
,
0010
0001
0100
0000
0010
1000
0100
0010
,
0000
0010
0001
0010
0100
1000
0001
0100
,
0110
0000
0000
0000
0000
0000
0000
0000
0000
0000
0000
0000
1010
0000
0000
0000
0000
0110
0000
0000
0000
0101
0000
0000
,
2002
0000
0000
0000
,
0000
0000
0000
0000
0000
0000
0000
0000
0000
0000
0000
0000
0000
0000
0000
0000
3003
0000
0000
0000
0000
0000
0000
0000
0000
0001
0010
0100
1000
0000
0000
0000
;

//---------------dance-single - From JazzyKid----------------
#NOTES:
     dance-single:
     From JazzyKid:
     Medium:
     12:
     0.510,0.534,0.470,0.181,0.005:
0110
0000
1001
0000
0001
0000
0010
0100
,
0000
1000
0001
0000
0200
0000
0310
0000
,
1001
0000
0100
0000
0010
0000
0001
0010
,
0000
0010
0100
0000
0100
1000
0000
0000
,
0101
0000
1010
0000
0001
0000
1000
0100
,
0000
0100
0010
0000
0001
0000
0101
0000
,
1010
0000
0001
0000
0100
0001
0000
1010
,
0000
0101
0000
0010
0100
0000
1001
0000
,
0010
1000
0100
0001
,
0100
0000
1000
0000
0010
0100
0010
0000
,
0100
0010
1000
0100
,
0010
0001
0010
0000
0100
1000
0100
0000
,
0001
0100
1000
0100
,
0001
0000
1000
0000
0110
0000
1000
0001
,
1000
0000
0001
0000
0100
0010
0000
1000
,
0000
0100
0000
0010
0001
0000
1001
0000
,
0010
0100
0010
0100
,
0001
0100
1000
0000
1000
0100
0001
0000
,
0010
0100
1000
0010
,
0100
0010
0000
2002
0000
3003
0000
0000
,
0010
0001
0100
0000
1010
0000
0101
0000
,
0010
1000
0100
0000
0011
0000
1010
0000
,
0001
0000
0100
0000
0010
1000
0010
1000
,
0000
0100
0010
0000
0001
0000
0110
0000
,
1002
0000
0000
0000
,
0000
0000
0000
0000
0000
0000
0000
0003
,
0010
0100
1000
0001
,
0100
0010
0100
0000
0010
0100
0010
0000
,
2001
0000
0000
0000
,
0000
0000
0000
0000
0000
0000
0000
3000
,
0100
0001
0010
0000
0100
1000
0010
0000
,
1000
0001
1000
0100
,
0010
0001
0100
0010
,
0010
1000
0010
1000
0001
0100
0001
0100
,
0010
1000
0100
0010
,
0001
0010
0001
0010
0100
1000
0100
1000
,
0010
1010
0100
0101
,
0010
0000
1001
0000
0010
0001
0100
0000
,
0010
1000
0100
0000
0100
0010
0001
0010
,
0200
0000
0000
0000
0000
0300
0000
0000
,
0100
1000
0010
0100
,
0001
0010
0100
1000
,
0001
0100
0010
1000
,
0001
0100
0001
0010
,
0100
0000
0000
2002
0000
3003
0000
0000
,
0100
0000
0000
2020
0000
3030
0000
0000
,
0110
0000
0100
0001
0000
1000
0010
1000
,
0000
0100
0010
0000
0110
0000
1001
0000
,
0100
0001
0010
0100
,
1000
0010
0100
0001
,
1000
0100
0010
0001
,
0100
0010
1000
0100
,
0010
0000
0000
2020
0000
3030
0000
0000
,
0010
0000
0000
0022
0000
0033
0000
0000
,
0001
0010
0100
0000
1000
0100
0010
0000
,
0001
0010
0100
0000
1010
0000
0101
0000
,
1000
0000
0010
0000
0100
0110
0000
1001
,
0000
0100
0010
0001
,
0010
0000
0100
0000
0010
0110
0000
1001
,
0000
0100
0010
0001
,
2002
0000
3003
1001
0000
0000
0000
0000
,
0010
0100
0000
0101
0000
2020
0000
3030
,
0010
1000
0100
0010
,
0001
0100
1010
0101
,
0010
0001
0100
0010
,
1000
0100
0011
1100
,
0010
0100
0001
0010
,
0100
1000
0011
1100
,
0010
0100
0001
1000
,
0010
0100
1010
0101
,
0010
0001
1000
0000
0010
1000
0001
0000
,
0100
0010
1000
0100
,
0100
0001
1000
0000
0100
1000
0001
0000
,
0010
0000
0001
0000
1000
1001
0000
0000
,
0010
0000
0100
0000
0001
1000
0100
0000
,
0010
0001
0100
0000
0010
1000
0100
0000
,
0011
0000
0110
0000
,
2002
0000
0000
0000
,
0000
0000
0000
0000
0000
0000
0000
0000
0000
0000
0000
0000
3003
0000
0000
0000
0000
0000
0000
0000
0000
0000
0000
0000
0000
0100
0000
0000
0000
0000
0000
0000
;

//---------------dance-single - From JazzyKid----------------
#NOTES:
     dance-single:
     From JazzyKid:
     Easy:
     9:
     0.388,0.391,0.334,0.099,0.000:
0010
0010
0100
0100
,
0001
0001
1000
1000
,
0100
0100
0010
0010
,
0100
0100
1001
0000
,
0010
0001
0010
0001
,
0010
0100
1000
0100
,
1000
0100
0010
0100
,
0010
0100
1001
0000
,
0100
0010
0100
0010
,
0001
1000
0010
0000
,
0100
0001
0100
0001
,
1000
0010
1000
0000
,
0010
0100
0001
1000
,
0001
0100
0001
0010
,
2002
0000
3003
0000
,
0100
0010
1001
0000
,
0010
0001
0010
0100
,
1000
0100
1001
0000
,
1000
0100
0010
0001
,
0100
0010
0000
2002
0000
3003
0000
0000
,
1000
0010
0001
0010
,
1000
0100
0001
0100
,
2000
0000
0000
0000
,
3001
0001
1001
0000
,
1000
0100
0011
0000
,
0001
0100
1010
0000
,
0010
0100
1001
0000
,
0100
0010
1001
0000
,
1000
0100
0011
0000
,
0001
0100
1010
0000
,
0010
1000
0101
0000
,
0010
0001
1100
0000
,
0001
0001
0001
1001
,
1000
1000
1000
1010
,
0100
0100
0100
0110
,
0010
0010
0010
1001
,
0020
0000
0030
0000
,
0200
0000
0300
0000
,
2002
0000
0000
0000
,
0000
0000
3003
0000
,
1000
1000
0010
0010
,
0100
0100
0001
0001
,
0010
0010
0100
0100
,
1000
1000
0010
0010
,
0100
0100
1001
0000
,
0010
0010
1001
0000
,
1100
0000
0101
0000
,
0011
0000
1010
0000
,
0001
0001
0010
0010
,
0100
0100
1000
1000
,
0001
0001
0010
0010
,
0100
0100
1000
1000
,
0010
0000
1010
0000
,
0100
0000
0011
0000
,
1010
0000
1100
0000
,
0011
0000
0101
0000
,
0001
0100
1000
0100
,
0001
0100
0010
1000
,
0100
0001
0100
1000
,
0010
0100
0001
1000
,
0010
0000
1001
0000
,
1000
0100
1001
0000
,
0010
1000
0001
0100
,
0010
1000
0001
0100
,
1000
0100
0001
0010
,
1000
0010
0001
0100
,
0010
1000
0100
0010
,
0001
0100
0010
1000
,
0100
1000
0001
0010
,
0100
1000
0010
1000
,
0100
0010
0001
1000
,
0010
1000
0001
0010
,
0100
1000
0001
0100
,
0010
0100
0110
0000
,
0001
1000
0010
0100
,
0001
0010
0100
1000
,
1001
0000
0000
0000
,
2002
0000
0000
0000
,
0000
0000
0000
0000
0000
0000
0000
0000
0000
0000
0000
0000
0000
0000
0000
0000
0000
0000
0000
0000
0000
0000
0000
0000
0000
3003
0000
0000
0000
0000
0000
0000
;

//---------------dance-single - From JazzyKid----------------
#NOTES:
     dance-single:
     From JazzyKid:
     Beginner:
     4:
     0.212,0.285,0.135,0.063,0.000:
0001
0000
0000
0000
,
0001
0000
0000
0000
,
1000
0000
0000
0000
,
1000
0000
0000
0000
,
0010
0000
0000
0000
,
0010
0000
0000
0000
,
0100
0000
0000
0000
,
0100
0000
0000
0000
,
0001
0000
0000
0000
,
0100
0000
0000
0000
,
0010
0000
0000
0000
,
1000
0000
0000
0000
,
0100
0000
0000
0000
,
0010
0000
0000
0000
,
0001
0000
0000
0000
,
1001
0000
0000
0000
,
0010
0000
0000
0000
,
0100
0100
0100
0000
,
0001
0000
0000
0000
,
1000
1000
1000
0000
,
0010
0000
0000
0000
,
0100
0100
0100
0000
,
0001
0000
0000
0000
,
1001
0000
0000
0000
,
0010
0000
0100
0000
,
0001
0000
0100
0000
,
0010
0000
1000
0000
,
0100
0010
0001
0000
,
0100
0000
0010
0000
,
1000
0000
0100
0000
,
1000
0000
0001
0000
,
0100
0100
0010
0000
,
2000
0000
0000
0000
,
3000
0000
0000
0000
,
0002
0000
0000
0000
,
0003
0000
0000
0000
,
0010
0010
0010
0000
,
0100
0100
0100
0000
,
2002
0000
0000
0000
,
3003
0000
0000
0000
,
0001
0000
0010
0000
,
0100
0000
1000
0000
,
0100
0000
0010
0000
,
0001
0000
0100
0000
,
0010
0000
1000
0000
,
0100
0000
0010
0000
,
0001
0000
0010
0000
,
0100
0000
1001
0000
,
0100
0000
0010
0000
,
1000
0000
0001
0000
,
0100
0000
0010
0000
,
1000
0000
0100
0000
,
0010
0000
0001
0000
,
0100
0000
0010
0000
,
1000
0000
0001
0000
,
0100
0100
0110
0000
,
0001
0000
0010
0000
,
1100
0000
0011
0000
,
0100
0000
0010
0000
,
1100
0000
0011
0000
,
0100
0000
1010
0000
,
0100
0000
0011
0000
,
0010
0000
0100
0000
,
0001
0010
0100
1000
,
0001
0000
0100
0000
,
1000
0100
0010
0001
,
0100
0000
0010
0000
,
0010
1000
0100
1000
,
0010
0000
0100
0001
,
0010
0001
0100
0001
,
0010
0000
0100
0000
,
0001
1000
0001
0000
,
1010
0000
0101
0000
,
0020
0000
0000
0030
,
1000
0000
0001
0000
,
0010
0100
0010
0000
,
0110
0000
0000
0000
,
2002
0000
0000
0000
,
0000
0000
0000
0000
0000
0000
0000
0000
0000
0000
0000
0000
0000
0000
0000
0000
0000
0000
0000
0000
0000
0000
0000
0000
0000
3003
0000
0000
0000
0000
0000
0000
;

//---------------dance-single - ITG Edition----------------
#NOTES:
     dance-single:
     ITG Edition:
     Edit:
     18:
     1.000,1.000,0.632,0.470,1.000:  // measure 1
1001
0000
0010
0100
1000
0000
0101
0000
0010
0100
0001
0000
0010
0100
1000
0000
,  // measure 2
0100
0010
0001
0000
1010
0000
0100
0000
0001
0000
0010
0000
1000
0000
0010
0000
,  // measure 3
0001
0000
0100
0000
0010
0000
1000
0000
0010
1000
0010
0000
0101
0000
1001
0000
,  // measure 4
0100
1000
0100
0000
0010
0001
0010
0000
0100
0001
0100
0000
0010
1000
0010
0000
,  // measure 5
0110
0010
1000
0001
0100
1000
0100
0001
,  // measure 6
0010
0000
0100
0000
1000
0000
0010
0000
0100
0001
0010
0000
1010
0000
0101
0000
,  // measure 7
0010
1000
0010
1000
0010
0000
0100
0001
0100
0001
0100
0000
0010
1000
0100
0010
,  // measure 8
0001
0100
0010
1000
0001
0100
0010
1000
0001
0010
0100
1000
2002
0000
0000
3003
,  // measure 9
0110
0000
0010
0100
0010
0000
1010
0000
0100
0001
0100
0000
0011
0000
0010
0100
,  // measure 10
1000
0000
0100
0010
0001
0000
1000
0100
0010
0100
0010
0001
0100
0010
1001
0000
,  // measure 11
0100
0010
0001
0100
0010
0100
0001
0010
0100
1000
0010
0100
0001
0100
0010
1000
,  // measure 12
0101
0000
1010
0000
0000
0000
2002
0000
3003
0000
0001
1000
0001
0100
0110
0000
,  // measure 13
0001
0010
0001
0010
0100
1000
0010
0100
0001
0100
1000
0100
0001
0010
1000
0010
,  // measure 14
0001
0100
0010
1000
0010
0001
1000
0100
0001
0010
0100
1000
0010
0100
0010
2000
,  // measure 15
0002
0000
0000
0000
0000
0000
3003
0000
0000
2020
0000
3030
0000
0202
0000
0303
,  // measure 16
0000
1000
0010
0100
0010
0100
0001
0010
0100
0010
0100
2000
0000
0000
3000
0000
,  // measure 17
0110
0000
1000
0100
0001
0000
0011
0000
0001
0010
1000
0000
0110
0000
0100
0001
,  // measure 18
1000
0000
0001
0010
1000
0001
0100
0000
1000
0010
1000
0010
1000
0000
0101
0000
,  // measure 19
0110
0000
0010
1000
0010
0000
0001
0100
0001
0100
0000
0000
0001
0010
0100
0010
,  // measure 20
0001
1000
0100
0010
0100
1000
0001
0010
0100
0010
0001
0010
0011
0000
0000
0000
,  // measure 21
1001
0000
0010
0001
0010
0000
1000
0100
0010
0001
0010
0000
0001
0010
0100
1000
,  // measure 22
0100
0000
0001
0010
0100
0010
0001
0100
0010
0001
0010
0100
0001
0010
0100
1000
,  // measure 23
1100
0000
1000
0100
0010
0100
1000
0100
0010
0000
0022
0000
0033
0000
2200
0000
,  // measure 24
3300
0000
0010
0001
0100
0000
1000
0100
0010
0001
0010
0100
2002
0000
3003
0000
,  // measure 25
1100
0100
1000
0100
0010
0001
0100
0010
,  // measure 26
1000
0001
0100
0010
1000
0001
0100
0010
,  // measure 27
1000
0100
1000
0001
0010
0100
1000
0001
,  // measure 28
0010
0100
1000
0010
0100
0001
1000
0100
,  // measure 29
0011
0001
0100
0010
1000
0010
0100
0001
,  // measure 30
0100
0010
1000
0001
0100
0010
1000
0100
,  // measure 31
0010
0100
1000
0001
0010
0100
0010
0001
,  // measure 32
0100
0010
1000
0001
0100
0010
0100
0001
,  // measure 33
0100
0000
0100
0000
1100
0000
0100
0001
0100
0000
0100
0000
1100
0000
0100
0001
,  // measure 34
0100
0000
0100
0000
1100
0000
0100
0001
0100
0000
0100
0000
1100
0000
0100
0001
,  // measure 35
0100
0000
0100
0000
1100
0000
0100
0001
0100
0000
0100
0000
1100
0000
0100
0001
,  // measure 36
0100
0000
0100
0000
1100
0000
0100
0001
0100
0000
0100
0000
1100
0000
0100
0001
,  // measure 37
0100
0000
2002
3003
0010
0010
2002
3003
,  // measure 38
0100
0100
2002
3003
0010
0100
2002
3003
,  // measure 39
0001
0010
0100
1000
0001
0010
0001
0010
0100
1000
0100
0010
0100
1000
0100
0010
,  // measure 40
0001
0000
0001
0010
0001
0000
0100
1000
0100
0000
1000
0001
0010
0100
1000
0000
,  // measure 41
0100
0010
0100
0010
0100
0001
0100
0001
1000
0010
1000
0010
0100
0001
0100
0001
,  // measure 42
0010
0001
0010
0001
1000
0100
1000
0100
0010
0001
0010
0001
0100
0010
0100
0010
,  // measure 43
1000
0001
1000
0001
0100
0010
0100
0010
1000
0010
1000
0010
0100
0001
0100
0001
,  // measure 44
0010
0001
0010
0001
1000
0100
1000
0100
0010
0001
0010
0001
0100
0010
0100
0010
,  // measure 45
0100
0000
0001
0000
1000
0000
0022
0033
0000
0000
0011
0000
2200
3300
0000
0000
,  // measure 46
0001
0000
0100
0000
1000
0000
0202
0303
0000
0000
1010
0000
0202
0303
0000
0000
,  // measure 47
1000
0100
0010
0100
1000
0000
0001
0010
0100
0010
0001
0000
0010
0100
1000
0100
,  // measure 48
0010
0000
0001
0010
0100
1000
0100
0010
0100
0010
0100
1000
0110
0000
0000
0000
,  // measure 49
0010
0100
0010
0100
1000
0100
1000
0100
0010
0001
0010
0001
0010
0100
0010
0100
,  // measure 50
1000
0001
1000
0001
0100
0001
0100
0001
1000
0010
1000
0010
0100
0001
0100
0001
,  // measure 51
0010
0100
0010
0100
1000
0001
1000
0001
0010
0001
0010
0001
1000
0001
1000
0001
,  // measure 52
0100
0010
0100
0010
1000
0010
1000
0010
0100
0001
0100
0001
1000
0010
1000
0010
,  // measure 53
0100
0000
0001
0000
0010
0000
2200
3300
0000
0000
0110
0000
0220
0330
0000
0000
,  // measure 54
1000
0100
0010
0001
0010
0100
2000
3000
0000
0000
0011
0000
0022
0033
0000
0000
,  // measure 55
0010
1000
0100
1000
0010
0000
0010
0001
0100
0001
0010
0000
0010
0100
1000
0000
,  // measure 56
0001
0010
1000
0001
0100
1000
0010
1000
0010
0001
1000
0100
0001
0000
0000
0000
,  // measure 57
0010
1000
0010
1000
0010
0100
0010
0100
0001
0100
0001
0100
0001
0010
0022
0000
,  // measure 58
0033
0000
1000
0100
1000
0001
0010
0001
0010
0100
1000
0010
0100
0010
0100
0001
,  // measure 59
1000
0010
0100
0010
0100
0001
0010
0001
0010
0100
1000
0010
0100
0001
2020
0000
,  // measure 60
3030
0000
0100
0001
0100
0010
1000
0100
0010
0001
0100
0010
0100
0010
1000
0001
,  // measure 61
1001
0000
0001
0010
0100
1000
0010
0100
0001
0100
0010
1000
0001
0010
0100
0010
,  // measure 62
0011
0000
0001
0010
0001
0000
0011
0000
0100
1000
0100
1000
0001
0010
0001
0010
,  // measure 63
1001
0000
0010
0100
1000
0100
0010
0100
1000
0010
0100
1000
0100
0010
1000
0100
,  // measure 64
0010
0001
0010
0001
0100
0010
0001
0010
0100
0010
0100
0001
0010
0100
1000
0010
,  // measure 65
1000
0001
0010
0100
1000
0001
0100
0001
0100
0010
1000
0010
0100
0001
1000
0100
,  // measure 66
0010
0001
0100
0010
1000
0100
0010
0001
0010
0100
2020
0000
0000
3030
0000
0000
,  // measure 67
1000
0100
0010
0001
0100
0010
1000
0001
0100
0010
1000
0100
0010
0100
0010
0001
,  // measure 68
0100
0010
0100
0001
1000
0100
0010
0100
1000
0001
0100
0010
1000
0001
0100
0010
,  // measure 69
0100
0010
1000
0001
0010
0100
0010
0100
1000
0001
0100
0001
0010
0100
0110
0000
,  // measure 70
0011
0000
1000
0100
0010
0000
0011
0000
0001
0010
1000
0000
0011
0000
0010
1000
,  // measure 71
0001
0010
0001
0100
0001
1000
0010
1000
0001
0100
0001
0010
0001
1000
0100
1000
,  // measure 72
0010
0100
0001
0010
0100
1000
0001
0100
0010
1000
0001
0100
0001
1000
0100
1000
,  // measure 73
0001
0100
0001
0010
0001
0100
0001
1000
0100
1000
0001
0010
1000
0001
0100
1000
,  // measure 74
0001
1000
0010
0001
1000
0100
0001
0010
1000
0100
2002
0000
0000
0000
3003
0000
,  // measure 75
0001
1000
0100
1000
0001
0100
0010
1000
0001
0010
0001
1000
0010
1000
0001
0100
,  // measure 76
0010
1000
0001
0100
0001
1000
0100
1000
0001
0010
0001
1000
0001
0100
0001
1000
,  // measure 77
0220
0000
0000
0000
0000
0000
0000
0000
0000
0000
0000
0000
0330
0000
0000
0000
0000
0000
0000
0000
0000
0000
0000
0000
0001
0010
0000
0000
0000
0000
0000
0000
0000
0000
0010
0100
0000
0000
0000
0000
0000
0000
0010
1000
0000
0000
0000
0000
,  // measure 78
2002
0000
0000
0000
,  // measure 79
0000
0000
0000
0000
0000
0000
0000
0000
0000
0000
0000
0000
0000
0000
0000
0000
0000
0000
0000
0000
3003
0000
0000
0000
0000
0010
0100
1000
0100
0000
0000
0000
;
