#TITLE:TasogareRevolver;
#ARTIST:JazzyKid;
#FILE:{o[.mp3;
#BPM:178.000;
#GAP:760;
#SAMPLESTART:65.346;
#SAMPLELENGTH:12.000;
#CDTITLE:215edit.png;
#CHANGEBPM:384.000=178.300,512.000=178.000,1224.000=140.000,1230.000=100.000;
#SINGLE:MANIAC:14:
B0A04806
02804286
80702804
08262700
B0B06824
08208464
80108607
02809010
28686424
28090890
68248282
87020230
84846268!8
0A!201!40708
7!70070B09!9
0090A010
86864242
82090410
84846262
84070230
82462846!6
09!80A!201!407
A!A00A0A0B!B
0B0080A0
7!80A06!6038
042!20A064
608!80A082
0686208!80
702!201086
02404248
208!80A062
0820B0B0
42428246
82482642
46282682
86424826
30B08682
40B08428
60B08242
803082B0
B!60208020
40204030
B!40806020
80206070
40870428
60890824
62870289
0648A0B0
7!80204020
602040A0
A!20608040
80608030
A0470230
682A0428
682A062A
0428A0B0
70302307
04286824
90702869
08402462
80260682
48090102
A0B06824
02608428
60308248
04286B00
70306824
06408682
40702848
06208406
20304286
02408248
26420860
84026300
86208428
08682462
[A0000000000070000A000300]
B!B0000000
{00000000000000000000000000000000B0000000000000000060802040000000}
;
#SINGLE:ANOTHER:12:
A0B06082
04602!20A0
B0208068
08202400
30706042
02806030
70602607
030820B0
80402060
20408280
20804020
86802420
60204020
6040A046
40602804
020860B0
80208020
62404260
80204080
280B!B0B00
86207030
84209070
60208484
028060A0
B!60000000
00000006
80204060
28208280
B!40000000
00000004
26802480
40604020
80602080
84846262
80402080
68682424
80702030
80B08620
84202868
2!20000200
20408020
60802040
60208040
60206080
200B!B0B00
2007!70700
A0260484
0280A0B0
20608020
40802060
40208060
20804020
8007!70700
8009!90900
68204280
68207030
40802A0B
00208060
80208A0B
00208060
B!B0BB0000
820307!707
80402080
60207030
80602080
40209010
80206080
20409010
80206040
80207030
86408460
20804020
26402460
80604B00
80206420
86208420
9000A000
B!B0000000
{000000000000000000000000B000000000000000000000000020000000000000}
;
#SINGLE:BASIC:9:
80802020
60604040
20208080
2020B000
80608060
80204020
40208020
8020B000
20802080
60408000
20602060
40804000
80206040
60206080
B!B000B000
2080B000
80608020
4020B000
40208060
280B!B0B00
40806080
40206020
4!40000000
B060B000
40209000
60207000
8020B000
2080B000
40209000
60207000
80403000
80601000
606060B0
40404070
202020A0
808080B0
8!80008000
2!20002000
B!B0000000
0000B000
40408080
20206060
80802020
40408080
2020B000
8080B000
10003000
90007000
60608080
20204040
60608080
20204040
80007000
20009000
70001000
90003000
60204020
60208040
20602040
80206040
8000B000
4020B000
80406020
80406020
40206080
40806020
80402080
60208040
20406080
20408040
20806040
80406080
20406020
8020A000
60408020
60802040
B0000000
B!B0000000
{00000000000000000000000000000000000000000000000000B0000000000000}
;
#SINGLE:BEGINNER:4:
60000000
60000000
40000000
40000000
80000000
80000000
20000000
20000000
60000000
20000000
80000000
40000000
20000000
80000000
60000000
B0000000
80000000
20202000
60000000
40404000
80000000
20202000
60000000
B0000000
80002000
60002000
80004000
20806000
20008000
40002000
40006000
20208000
4!40000000
40000000
6!60000000
60000000
80808000
20202000
B!B0000000
B0000000
60008000
20004000
20008000
60002000
80004000
20008000
60008000
2000B000
20008000
40006000
20008000
40002000
80006000
20008000
40006000
2020A000
60008000
10009000
20008000
10009000
20007000
20009000
80002000
60802040
60002000
40208060
20008000
80402040
80002060
80602060
80002000
60406000
70003000
8!80000080
40006000
80208000
A0000000
B!B0000000
{00000000000000000000000000000000000000000000000000B0000000000000}
;
