#TITLE:アートコア神社;
#SUBTITLE:;
#ARTIST:An;
#TITLETRANSLIT:ArtcoreShrine;
#SUBTITLETRANSLIT:;
#ARTISTTRANSLIT:;
#CREDIT:;
#BANNER:ArtcoreShrine_b.jpg;
#BACKGROUND:ArtcoreShrine_b.jpg;
#LYRICSPATH:;
#CDTITLE:215edit.png;
#MUSIC:ArtcoreShrine.mp3;
#OFFSET:-0.120;
#SAMPLESTART:102.419;
#SAMPLELENGTH:12.000;
#SELECTABLE:YES;
#BPMS:0.000=190.000,192.000=95.000,208.000=190.000,240.000=95.000,256.000=190.000,292.000=379.998,484.000=94.999;
#STOPS:;
#BGCHANGES:0.000=ArtcoreShrine.avi=1.000=1=1=0,
99999=-nosongbg-=1.000=0=0=0 // don't automatically add -songbackground-
;

//---------------dance-single - kyuukeityuuyo----------------
#NOTES:
     dance-single:
     kyuukeityuuyo:
     Hard:
     17:
     0.915,1.000,0.675,0.547,0.304:
0100
0000
0000
0001
0000
0010
0100
1000
,
0010
0000
0000
0001
1000
0010
1000
0010
,
0100
0000
0000
0001
0000
0010
0100
1000
,
0020
0000
0130
0000
,
0100
0000
0000
0100
0000
0010
0100
0001
,
0100
0000
0000
0010
1000
0100
0010
0100
,
1000
0000
0000
0001
0000
0100
0010
0100
,
0002
0000
1003
0000
,
1000
0100
0010
0011
0000
0010
0001
0100
,
0010
1000
0010
0101
0000
0010
1000
0010
,
0100
0010
0100
0011
0000
1000
0001
0010
,
0100
0010
0001
1001
0000
0010
0100
1000
,
0010
0100
0001
1010
0000
0100
0001
0100
,
0001
0010
0100
1100
0000
0010
0001
0010
,
0001
1000
0010
1010
0000
0100
0010
0100
,
1001
0000
0000
1010
0000
0000
0101
0000
0010
0000
2002
0000
0000
0000
3003
0000
,
0020
0000
0031
1000
0000
0010
1000
0001
,
0010
0100
0010
0100
0000
0010
0100
0001
,
0200
0000
0301
0100
0000
0010
1000
0100
,
0011
0000
0001
0010
0100
1000
0100
0010
,
0200
0000
0310
0100
0000
1000
0001
0010
,
0002
0000
0013
0100
1000
0001
0100
0010
,
1000
0001
1000
0001
0010
0001
0010
0001
,
2000
0010
3001
0000
,
0200
0000
1300
0001
0000
0100
0001
1000
,
0100
0001
0100
0010
0000
0001
0010
1000
,
0020
0000
0031
1000
0000
0100
0001
0010
,
1100
0000
1000
0100
0010
1000
0010
0100
,
0020
0000
0031
1000
0000
0001
1000
0100
,
2000
0000
3100
0010
0001
1000
0010
0100
,
0001
1000
0001
0001
0100
1000
0100
0001
,
2002
0000
3003
0000
,
1001
0010
0100
0020
0000
0030
1000
0100
,
0010
0000
0100
0000
0010
0001
0010
0001
0010
0000
0100
0000
0010
0000
0001
0000
,
1000
0010
0100
2020
0000
3030
1010
0100
,
0001
0000
0100
0000
0010
1000
0010
1000
0010
0000
0100
0000
0001
0000
0100
0000
,
0010
0100
0001
0202
0000
0303
0010
0100
,
0010
0000
1000
0000
0001
1000
0001
1000
0001
0000
0010
0000
1000
0000
0010
0000
,
0001
0100
0010
2020
0000
3030
0101
0010
,
0100
0000
0010
0000
1000
0100
1000
0010
1000
0000
0001
0000
0010
0000
0100
0000
,
2002
3003
0000
1001
0000
0010
0010
0100
,
0010
1000
0100
0010
0001
0010
0100
0010
,
2002
3003
0000
0110
0000
0001
0100
0100
,
1000
0000
0000
0000
0001
0010
0001
0010
0100
0010
0100
0010
0100
1000
0100
1000
,
2002
3003
0000
0110
0000
0100
1000
0010
,
0001
0010
1000
0100
1000
0010
0001
0010
,
1000
0000
0001
0100
1010
0100
1001
0100
,
0020
0000
1030
0000
,
1001
0000
0000
0100
0000
0010
1000
0100
0001
0000
0000
0001
0100
1000
0010
0100
,
0001
0000
0000
1001
0000
1000
0010
1000
0002
0000
0000
0000
0103
0000
0000
0000
,
0011
0000
0000
1010
0000
1000
0010
0001
0020
0000
0000
0130
0001
0100
0010
1000
,
1001
0000
0000
0101
0000
0010
0100
1000
0020
0000
0030
0000
1001
0000
0000
0000
,
0110
0000
0000
0000
1001
0000
0000
0000
0010
0100
0000
0000
1010
0000
0000
0000
,
0011
0000
0000
0000
0110
0000
0000
0000
0001
1000
0000
0000
1010
0000
0000
0000
,
0110
0000
0000
0000
0101
0000
0000
0000
1000
0010
0000
0000
0110
0000
0000
0000
,
0011
0000
0000
0000
1100
0000
0000
0000
0010
0100
0000
0000
0011
0000
0000
0000
,
0110
0000
0000
0000
0011
0000
0000
0000
1000
0100
0000
0000
1001
0000
0000
0000
,
0110
0000
0000
0000
1010
0000
0000
0000
0100
0001
0000
0000
1001
0000
0000
0000
,
1010
0000
0000
0000
0101
0000
0000
0000
0100
0010
0000
0000
0110
0000
0000
0000
,
2002
0000
0000
0000
0000
3003
0000
0000
,
0010
0100
1000
1100
0000
0010
0100
0010
1000
0100
0001
0101
0000
0010
0100
1000
,
0001
0100
0001
0101
0000
0010
1000
0100
1000
0010
0100
0011
0000
0010
0100
1000
,
0001
0100
0010
1010
0000
1000
0010
0001
0010
1000
0100
0011
0000
0001
0100
1000
,
0010
0100
0001
1001
0000
0010
1000
0100
0010
0001
0100
0010
1000
0001
0100
0001
,
1001
0001
0100
0010
0100
0010
1000
0001
,
0011
0010
0100
1000
0100
0001
0100
1000
,
1010
0100
0001
1000
0010
0001
0010
1000
,
1001
0001
0010
0100
0010
0001
0010
0100
,
1100
0100
1000
0010
0100
0010
0100
0001
,
0011
0001
0010
1000
0010
0001
0100
1000
,
1010
0010
0001
0010
1000
0010
0001
0010
,
1100
0100
0001
0100
1000
0100
0001
0100
,
2002
0000
0000
0000
0000
3003
0000
0000
,
2001
0000
3010
0200
,
0000
0301
0100
0100
,
0010
0000
1000
0000
0001
0010
0001
1000
,
0100
1000
0100
0010
0100
0010
0100
0010
,
0001
0010
0001
0100
0001
0100
0001
0000
,
0000
1010
0001
1000
,
0101
0000
0000
0000
0010
1000
0100
0010
,
0001
0100
0010
1000
0100
0010
0001
0100
,
0010
1000
0100
0010
0001
0100
1001
0000
,
0000
0010
0020
1030
,
0200
0000
0310
0000
0001
0010
0100
1000
,
0010
0100
0001
0010
0100
1000
0010
0100
,
0010
1000
0100
1000
0010
0100
0010
0000
,
0000
1010
1000
0001
,
0101
0000
0000
0000
1000
0010
1000
0010
,
0100
0010
0100
0010
0100
0001
0100
0001
,
0020
0000
1030
0101
,
0000
0100
0100
0010
,
1000
0000
0010
0000
0100
0001
0100
1000
,
0100
0010
1000
0001
0010
0100
0010
0001
,
0100
0010
1000
0100
0010
0100
1000
0000
,
0000
0010
2000
3001
,
0100
0000
0000
0000
0010
1000
0001
0100
,
0010
1000
0001
0100
0010
1000
0100
0010
,
0100
1000
0001
0100
0010
1000
0001
0000
,
0000
0100
0100
0010
,
0100
0000
0001
0000
1000
0100
0010
0001
,
0100
0010
1000
0100
0010
0001
0100
0010
,
0100
1000
0010
2002
,
3003
1001
0100
0010
,
0100
0010
1000
0001
0010
0100
1000
0010
,
0100
0010
1000
0100
0010
0001
0100
0010
,
2002
3003
0000
2020
,
3030
0000
0202
0303
,
0000
0220
0330
0000
,
2002
3003
0000
0022
,
0033
0000
2200
3300
,
0000
0022
0033
0000
,
0220
0330
0000
1001
,
0000
0101
0000
1001
,
1000
0010
0001
1000
,
0100
0001
0100
1000
,
0100
0001
0010
1000
,
0010
0001
0010
1000
,
0001
0100
1000
0010
,
0100
0001
1000
0010
,
0200
0310
1000
0100
0020
0031
0200
0310
,
1000
0200
0310
0002
0013
0100
0020
0130
,
2001
0000
0000
3002
0000
0013
0100
1000
0020
0000
0000
1030
0001
0100
1000
0100
,
0002
0000
0000
0013
0000
1000
0010
0001
2020
0000
0030
0000
3002
0000
0003
0000
,
0202
0303
0000
1001
0000
0010
0100
0010
0200
0000
0000
0310
0001
0010
0100
1000
,
0020
0000
0000
1030
0000
1000
0100
0010
1001
0000
0000
0000
0100
0000
0000
0000
,
2002
0000
0000
0000
0000
0000
0000
3003
;

//---------------dance-single - 24sai.gakuseidesu----------------
#NOTES:
     dance-single:
     24sai.gakuseidesu:
     Challenge:
     20:
     1.000,1.000,0.837,0.290,0.881:
0000
0000
0000
0000
,
0000
0000
0000
0000
,
0000
0000
0000
0000
,
0000
0000
0000
0000
,
0000
0000
0000
0000
,
0000
0000
0000
0000
,
0000
0000
0000
0000
,
0000
0000
0000
0000
,
0110
0000
1000
0000
0001
0000
0100
0010
1000
0010
0100
0000
0101
0000
0010
1000
,
0100
0000
0010
0000
0011
0000
1000
0010
1000
0010
1000
0000
0101
0000
0000
0000
,
0100
0000
1000
0000
0001
0000
0010
0100
1000
0001
0100
0000
1010
0000
0001
1000
,
0100
0000
0010
0000
0101
0000
0010
0001
0010
0001
0010
0000
1001
0000
0010
0100
,
0010
0000
1000
0000
0110
0000
1000
0010
0001
0010
0100
0000
1010
0000
1000
0100
,
0001
0000
0001
0000
0110
0000
0001
1000
0001
1000
0001
0000
0110
0000
0000
0000
,
1010
0000
0010
0000
0101
0000
0010
1000
0010
1000
0010
0100
0101
0000
0010
0100
,
1001
0000
0000
1001
0000
0000
1001
0000
0010
0100
0010
0100
0010
0000
0001
1000
,
0110
0000
1001
1001
0000
0010
0010
1000
,
1000
0001
0010
0001
1000
0100
1000
0010
0100
0010
0100
0001
1000
0010
0100
0001
,
0100
0000
1010
0101
0000
0100
0100
0001
,
0011
0000
0000
0000
1000
0100
0010
0001
0100
0010
0100
0001
1000
0010
0100
0001
,
0110
0000
1010
1010
0000
1000
0001
0010
,
0001
0010
0100
1000
0010
0100
0001
0010
0100
1000
0010
1000
0010
0100
0001
0100
,
0110
0000
0000
0000
0011
0000
1010
0000
0100
0010
0100
0010
0100
0001
0100
0001
,
2001
0000
0000
0000
0010
0000
0000
0000
0100
0000
0000
0000
0000
0000
3001
1000
,
0200
0000
2300
3001
0000
0101
0101
1010
,
0100
0010
0100
0001
1000
0100
0010
0001
0010
0100
1000
0010
0100
0001
0100
0001
,
0020
0000
0031
1100
1100
0010
0001
0010
,
1100
0000
0000
0000
1000
0100
0001
0100
1000
0010
0100
0001
0100
1000
0001
0100
,
0020
0000
0031
1000
0000
0011
1000
0100
,
0011
0000
0001
0000
0010
0100
1000
0001
0010
0100
1000
0010
0100
0001
1000
0001
,
1001
0000
0000
0000
1000
0100
1000
0100
0010
0100
0010
0100
0010
0001
0010
0001
,
0200
0000
0000
0000
0001
0000
0000
0300
,
1001
0000
0010
0000
0100
0000
0001
0000
1000
0100
0001
0000
0001
0000
0100
0000
,
0010
0010
1000
0000
1000
0010
0001
1000
0100
0001
0010
0100
1000
0001
0010
1000
,
0010
0100
0001
0100
0010
1000
2002
0000
0000
3003
1001
0000
1010
0000
0100
0000
,
0010
0100
0001
0000
1000
0100
0010
0001
0010
1000
0001
0100
1000
0010
0100
0001
,
0010
0001
0010
1000
0100
1000
0202
0000
0000
0303
0101
0000
1010
0000
0100
0000
,
0010
0010
0100
0000
0001
1000
0010
1000
0001
0100
0001
1000
0010
1000
0001
0100
,
1000
0100
0001
0100
0010
0100
2020
0000
0000
3030
1010
0000
0101
0000
1000
0000
,
0010
0010
0010
0000
1000
0100
1000
0010
1000
0001
0100
0010
0100
0001
0100
0010
,
2002
3003
0110
1001
0000
0100
0100
0010
,
0011
0000
0001
0000
0010
0001
0010
0100
0010
1000
0010
0100
0010
0001
0100
0010
,
2002
3003
0110
0210
0000
0301
0101
0100
,
1000
0100
1000
0100
1000
0100
0010
0100
0010
0100
0010
0100
0010
0001
0010
0001
,
2002
3003
1001
0110
0000
0100
1010
0110
,
0100
0001
0100
0010
0100
1000
0100
0010
0100
1000
0100
0010
0100
0001
0100
0010
,
1000
0000
0000
0000
0101
0000
0101
0000
0010
0100
0010
0100
0010
1100
0010
0100
,
0020
0000
0000
0030
1001
0000
0000
0000
,
1001
0000
0100
0000
0010
0000
1000
0000
0001
0000
0100
0000
0010
0000
1000
0000
0100
0000
0010
0000
0001
0010
0001
0010
0001
0000
0010
0000
0100
0000
0010
0000
,
0001
0000
0100
0000
0010
0000
1000
0000
0001
0000
0100
0000
0010
0000
1000
0000
0100
0000
1000
0000
0010
1000
0010
1000
0010
0000
0100
0000
0001
0000
0100
0000
,
0010
0000
1000
0000
0001
0000
0010
0000
0100
0000
0010
0000
0001
0000
0010
0000
0100
0000
1000
0000
0010
0100
0010
0100
0010
0000
0100
0000
0001
0000
0010
0000
,
0001
0000
0010
0000
0100
0000
1000
0000
0010
0000
0100
0000
0001
0000
0100
0000
0010
0000
1000
0000
0100
0000
0010
0000
0001
1000
0001
1000
1001
0000
0000
0000
,
0110
0100
0010
1000
0001
0100
0010
1000
,
0100
0000
0001
0000
0100
0010
0100
0010
0100
0000
0010
0000
0001
0000
0010
0000
,
1000
0010
0001
0100
1000
0100
0001
0100
,
0010
0000
1000
0000
0001
1000
0001
1000
0001
0000
0100
0000
0001
0000
0100
0000
,
1000
0001
0010
1000
0010
1000
0100
0001
,
0100
0000
1000
0000
0001
0100
0001
0100
0001
0000
1000
0000
0010
0000
0100
0000
,
0001
0010
0100
0010
0001
0010
0100
1000
0100
0010
0100
1000
0010
0100
0001
0100
,
2002
0000
0000
0003
0002
0000
0000
0003
3001
0000
0000
0000
0000
0000
0000
0000
,
0120
0000
0000
1030
0000
0001
0001
0100
0020
0000
0000
0130
0100
0010
0100
0001
,
2010
0000
0000
3001
0000
0010
0001
0100
0002
0000
0000
0000
1003
0000
0000
0000
,
2001
0000
0000
3001
0000
0010
0010
0100
0002
0000
0000
1003
0010
1000
0010
1000
,
0200
0000
0000
0301
0000
0001
0010
0100
2200
0000
3300
0000
2002
0000
3003
0000
,
1010
0000
0110
0000
0101
0000
0001
0010
1000
0010
0001
0000
0101
0000
0010
1000
,
0110
0000
0110
0000
0101
0000
0001
0100
1000
0100
0001
0000
1001
0000
0000
0000
,
0110
0000
1001
0000
0110
0000
1000
0100
0010
0010
0100
0000
0011
0000
0001
0010
,
1000
0000
0011
0000
0011
0000
1000
0100
0010
0010
0001
0001
1001
0000
0110
0110
,
1001
0000
0011
0000
0110
0000
1000
0100
0010
0001
0010
0000
1100
0000
0001
0010
,
0101
0000
0101
0000
1010
0000
0100
0001
0010
0001
0100
0000
1010
0000
0000
0000
,
1010
0000
1010
0000
0101
0000
0010
1000
0100
1000
0010
0000
0101
0000
0010
1010
,
0101
0000
0101
0000
1010
0000
0100
0010
0100
0010
0100
0001
0010
0100
1000
0001
,
2002
0000
0000
0000
0000
3003
0000
0000
,
1000
1000
0001
0000
0100
0100
0010
1000
,
0001
0001
0010
0100
1000
0010
0100
0001
,
0001
0100
0010
1000
0001
0010
1000
0010
,
0001
0100
0010
1000
1000
0010
0100
0100
,
2002
0000
3003
0000
0010
1000
0110
0000
,
0001
0010
1000
0001
0100
1000
0001
0100
,
1000
0100
0001
0100
1000
0100
0010
1000
,
0010
0100
0010
0001
0010
0100
1000
0001
,
0101
0000
0010
1000
0100
0000
1000
0100
,
0001
0100
1000
0100
0001
1000
0010
0001
,
0100
0100
0010
1000
0001
0001
0100
0010
,
0010
1000
0001
0010
0100
1000
0001
0001
,
0110
0000
0010
0100
1000
1000
1100
0100
,
0010
0001
0010
0100
0010
0100
1000
0001
,
0100
0010
1000
0001
0100
1000
0100
0001
,
0010
1000
0010
0100
0010
0100
1000
0001
,
0011
0000
0010
0010
0010
0000
0100
0100
,
1100
0000
0001
0010
0010
0100
1000
0001
,
0100
0010
0010
1000
0001
0001
0101
0010
,
1000
0100
1000
0010
0100
0010
0100
0001
,
0011
0000
1000
0100
0010
0000
0001
0010
,
0100
0100
1000
0010
0100
0001
1000
1000
,
0001
0010
0100
0010
0001
0010
0100
0110
,
1100
0000
0001
0010
0100
0010
0100
1000
,
0100
0010
0001
0100
0001
0010
0220
0000
,
0000
0330
1000
1000
0010
0100
0002
0103
,
0100
0010
0100
0010
0100
0001
0010
0100
,
1000
0001
0010
1000
0010
0001
0010
1000
,
0011
0000
0010
0100
0001
0000
1001
0000
,
0100
0001
0010
0100
1000
0010
1000
0100
,
0020
0000
0000
0000
,
0030
0000
0000
0000
,
1000
0010
1000
0100
0000
0000
0010
0000
0000
0001
0000
0000
0010
0000
0000
0100
0000
0000
0010
0001
0010
0100
0000
0000
,
1000
0000
0000
0100
0000
0000
0010
0000
0000
0100
0000
0000
0010
0100
0010
0001
0000
0000
1000
0000
0000
0100
0000
0000
,
0010
0000
0000
0001
0000
0000
0010
0100
0010
0001
0000
0000
1000
0000
0000
0100
0000
0000
0010
0000
0000
0100
0000
0000
,
1000
0010
1000
0001
0000
0000
0010
0000
0000
0100
0000
0000
1000
0000
0000
0100
0000
0000
0010
0001
0010
0100
0000
0000
,
1000
0000
0000
0100
0000
0000
0010
0000
0000
0001
0000
0000
0010
0100
0010
0001
0000
0000
1000
0000
0000
0100
0000
0000
,
0010
0000
0000
0100
0000
0000
1000
0100
1000
0010
0000
0000
1000
0000
0000
1000
0000
0000
0100
0000
0000
0010
0000
0000
,
0001
0010
0001
1000
0000
0000
0100
0000
0000
0010
0000
0000
0010
0000
0000
0100
0000
0000
0001
0010
0001
0100
0000
0000
,
0100
0000
0000
0001
0000
0000
1000
0010
1000
0001
0000
0000
0010
0000
0000
0010
0000
0000
0100
1000
0100
0010
0000
0000
,
0011
0010
0100
1000
0100
0010
0001
0010
,
0100
1000
0010
1000
0100
0010
0001
0100
,
0010
1000
0100
0010
0001
0010
0100
0010
,
0001
0010
0100
1000
0100
0010
0100
1000
,
0100
0010
0001
0100
0001
0010
0100
1000
,
0010
1000
0100
0010
0001
0010
0100
1000
,
0100
0010
0001
0010
0001
0010
0100
1000
,
0100
0010
0001
0100
0010
1000
0100
0010
,
0002
0000
0000
0000
,
0000
0000
0000
0000
,
0000
0000
0000
0000
,
0000
0000
0000
0000
,
1003
0000
0000
0000
;

//---------------dance-single - kyoumoiitenki----------------
#NOTES:
     dance-single:
     kyoumoiitenki:
     Medium:
     13:
     0.631,0.971,0.378,0.284,0.186:
0000
0000
0000
0000
,
0000
0000
0000
0000
,
0000
0000
0000
0000
,
0000
0000
0000
0000
,
0000
0000
0000
0000
,
0000
0000
0000
0000
,
0000
0000
0000
0000
,
0000
0000
0000
0000
,
0100
0000
0000
0100
0000
0001
0100
0010
,
0100
0000
0000
0001
0010
0100
0010
0100
,
1000
0000
0000
1001
0000
0010
1000
0010
,
1000
0000
1010
0000
,
0100
0000
0000
0100
0000
1000
0100
0010
,
0001
0000
0000
0010
1000
0010
1000
0001
,
0100
0000
0000
0001
0000
0010
0100
0010
,
1001
0000
0000
0110
0000
0000
0220
0000
0000
0000
0330
0000
0000
0000
0000
0000
,
1001
0000
0000
1001
0000
0100
0010
0100
,
1000
0000
0000
0001
0100
0001
0010
0001
,
0100
0000
0000
1001
0000
1000
0010
1000
,
0010
0000
0110
0000
,
1001
0000
0000
0011
0000
1000
0100
0010
,
0001
0000
0000
0001
0100
1000
0100
0001
,
0100
0000
0000
1001
0000
1000
0100
0001
,
0200
0000
1300
0000
,
1001
0000
0000
1001
0000
1000
0010
0001
,
0100
0000
0000
0001
0100
1000
0010
0100
,
0001
0000
0000
1010
0000
0001
0100
0001
,
0200
0000
0301
0000
,
0101
0000
0000
1010
0000
0001
0010
1000
,
0100
0000
0000
1000
0100
0001
0010
1000
,
0010
0000
0000
0101
0000
0010
0001
0100
,
2002
0000
3003
0000
,
0001
0010
0100
1000
0000
0000
0011
0010
,
0100
0010
0100
1000
0001
0100
0010
0100
,
0001
0010
0100
0220
0000
0330
0010
0100
,
1000
0010
0001
0010
1000
0010
0001
0010
,
1000
0100
0010
0022
0000
0033
0001
0100
,
1000
0100
0001
0010
1000
0010
0100
1000
,
0001
0100
0001
2020
0000
3030
0100
0001
,
0100
0010
1000
0100
1000
0001
0010
0100
,
2002
3003
0000
1001
0000
0100
0100
0010
,
0100
0001
0010
0100
1000
0100
0010
0100
,
2002
3003
0000
0110
0000
1000
0010
0010
,
0001
0000
0010
0010
0100
0100
0010
0010
,
2002
3003
0000
0110
0000
0010
0001
0100
,
1000
0100
0001
0010
0001
0100
1000
0100
,
0001
0000
1000
0010
0100
0010
1000
0001
,
0020
0000
0000
0030
,
1000
0000
0000
0100
0000
0001
0010
0100
1000
0000
0000
0010
0100
0010
0100
0010
,
0100
0000
0000
1010
0000
0100
0010
0100
0010
0000
0000
0000
0001
0000
0000
0000
,
0011
0000
0000
1000
0000
1000
0010
0100
0020
0000
0000
1030
0001
0100
0010
1000
,
0100
0000
0000
0011
0000
0001
0001
0010
0100
0000
0000
0000
1001
0000
0000
0000
,
0020
0000
0000
1030
0000
0100
0010
0100
,
0002
0000
0000
1003
0100
0010
0100
1000
,
0001
0000
0000
1001
0000
0100
0010
1000
,
0001
0000
0101
0000
,
2000
0000
0000
3010
0000
0100
0100
0010
,
0100
0000
0000
0001
0010
0100
1000
0100
,
0012
0000
0000
1003
0000
0001
1000
0001
,
2002
0000
0000
0000
0000
3003
0000
0000
,
0010
0000
0000
0010
0000
0100
0100
0010
1000
0000
0000
0100
0010
0001
0010
0100
,
1010
0000
0000
0001
0000
0010
0001
1000
0001
0000
0000
0000
0100
0000
0000
0000
,
1010
0000
0000
0001
0000
1000
0010
1000
0001
0000
0000
0100
0010
1000
0100
0010
,
0100
0000
0000
0001
0000
0001
0010
0100
1001
0000
0000
0000
1001
0000
0000
0000
,
0010
1000
0100
0000
0010
0001
0100
0000
,
0010
1000
0100
0010
0001
0100
0010
0000
,
0010
1000
0001
0000
0001
1000
0010
0000
,
0001
0010
0100
1000
0010
0100
0001
0000
,
1000
0100
1000
0000
0010
0001
0010
0000
,
1000
0010
0001
0010
1000
0010
0001
0000
,
0100
0100
1000
0010
0001
0100
0010
1000
,
0001
1000
0100
0001
0001
0010
0100
1000
,
0000
0000
0000
0000
,
0020
0000
0000
0130
,
0000
0001
0100
1000
,
0100
0010
0100
0001
,
1000
0100
0010
0100
,
2000
0000
0000
3001
,
0000
0100
0100
0010
,
0100
0001
0100
0010
,
1000
0100
1000
0001
,
0002
0000
0000
0013
,
0000
0010
0100
0100
,
1000
0001
0010
0100
,
0010
0100
0001
0100
,
2000
0000
0000
3010
,
0000
0100
0010
1000
,
0001
0000
0010
1000
,
0100
1000
0010
0000
,
0102
0000
0000
0103
,
0000
0001
0010
1000
,
0001
0100
1000
0010
,
0100
0001
1000
0010
,
0200
0000
0000
0301
,
0000
1000
0010
1000
,
0001
0000
1000
1000
,
0001
0001
0100
0100
,
1001
0000
0011
0011
,
0000
0100
0100
0010
,
1000
0001
0010
0100
,
1000
0100
0010
0001
,
0010
0000
0100
0100
,
0010
0100
0001
0100
,
1000
0000
1000
0000
,
0101
0000
1001
0000
,
0200
0300
0000
0020
,
0030
0000
2000
3000
,
0000
0002
0003
0000
,
0200
0300
0000
0020
,
0030
0000
2000
3000
,
0000
0002
0003
0000
,
0200
0300
0000
1001
,
0000
1001
0000
1001
,
0001
0100
0010
0100
,
0010
1000
0010
1000
,
0001
0100
0001
0100
,
0001
0010
0001
0010
,
0100
1000
0100
1000
,
0010
0100
0010
0100
,
0001
1000
0001
0100
,
0001
1000
0001
1000
0001
1000
0001
1000
,
1001
0000
0000
0100
0000
0001
0100
0010
1000
0000
0000
0001
0010
0100
0010
0001
,
0100
0000
0000
0110
0000
1000
0100
0010
0002
0000
0000
0000
0003
0000
0000
0000
,
0101
0000
0000
1001
0000
0010
0010
0001
0100
0000
0000
1000
0001
0010
0100
0010
,
0100
0000
0000
0001
0000
0010
1000
0010
0101
0000
0000
0000
0100
0000
0000
0000
,
1001
0000
0000
0000
;

//---------------dance-single - puha----------------
#NOTES:
     dance-single:
     puha:
     Easy:
     9:
     0.455,0.720,0.236,0.108,0.027:  // measure 1
0000
0000
0000
0000
,  // measure 2
0000
0000
0000
0000
,  // measure 3
0000
0000
0000
0000
,  // measure 4
0000
0000
0000
0000
,  // measure 5
0000
0000
0000
0000
,  // measure 6
0000
0000
0000
0000
,  // measure 7
0000
0000
0000
0000
,  // measure 8
0000
0000
0000
0000
,  // measure 9
0001
0000
1000
0000
,  // measure 10
0010
0010
0100
0000
,  // measure 11
0001
0000
1000
0000
,  // measure 12
0010
0100
0010
1000
,  // measure 13
0001
0000
0010
0000
,  // measure 14
0100
0100
0001
0100
,  // measure 15
0010
0000
1000
0000
,  // measure 16
0100
0000
0000
0100
0000
0000
0100
0000
0000
0000
0000
0000
0000
0000
0000
0000
,  // measure 17
0001
0100
0010
0010
,  // measure 18
0100
0001
0100
0100
,  // measure 19
0010
1000
0100
1000
,  // measure 20
1000
0100
0001
0100
,  // measure 21
1000
0010
0010
0100
,  // measure 22
0100
0001
1000
0010
,  // measure 23
0100
0001
0001
0010
,  // measure 24
1000
0010
0001
0100
,  // measure 25
0010
1000
0001
0001
,  // measure 26
0100
0010
0010
0100
,  // measure 27
0001
0010
0100
1000
,  // measure 28
1000
0010
0100
0001
,  // measure 29
1000
0001
0001
0010
,  // measure 30
1000
0010
0100
1000
,  // measure 31
0100
0001
0100
1000
,  // measure 32
0010
0000
0000
0000
,  // measure 33
0010
1000
0001
0100
,  // measure 34
0010
1000
1010
0000
,  // measure 35
0001
0010
0001
0001
,  // measure 36
0100
1000
1010
0000
,  // measure 37
0100
0001
1000
0010
,  // measure 38
0100
0100
0011
0000
,  // measure 39
1000
1000
0010
0100
,  // measure 40
0001
0001
1001
0000
,  // measure 41
0010
0100
0010
0010
,  // measure 42
1000
0001
0010
0100
,  // measure 43
0100
1000
0010
1000
,  // measure 44
2020
0000
0000
3030
,  // measure 45
0100
0001
0010
0010
,  // measure 46
0001
1000
0100
1000
,  // measure 47
0001
0100
1000
0100
,  // measure 48
0220
0000
0000
0330
,  // measure 49
0100
0000
0000
0000
0110
0000
0000
0000
0001
0000
0001
0000
1000
0000
0100
1000
,  // measure 50
0010
0000
0000
0000
0100
0000
0001
1000
0020
0000
0000
0000
0000
0000
0000
0000
,  // measure 51
0130
0000
0000
0000
0001
0000
0100
0000
0010
0000
0000
0000
1000
0100
0010
0000
,  // measure 52
0101
0000
0010
0010
0001
0010
0110
0000
,  // measure 53
0001
0000
0001
0000
1000
0010
1000
0000
,  // measure 54
0100
0000
0010
0000
0100
0001
0100
0000
,  // measure 55
0010
0000
1000
0000
0001
0010
0001
0000
,  // measure 56
0010
0000
0100
0000
1000
0010
1000
0000
,  // measure 57
0010
0000
0100
0000
0001
1000
0001
0000
,  // measure 58
0100
0000
0010
0000
1000
0100
1000
0000
,  // measure 59
0001
0000
0010
0000
0100
0010
0100
0000
,  // measure 60
0000
2002
0000
0000
0000
0000
0000
0000
0000
0000
0000
0000
0000
0000
0000
0000
0000
0000
0000
0000
0000
0000
0000
0000
0000
0000
0000
0000
0000
0000
0000
0000
0000
0000
0000
0000
0000
0000
0000
0000
0000
0000
0000
0000
0000
0000
0000
0000
0000
0000
0000
0000
0000
0000
0000
0000
0000
0000
0000
0000
0000
0000
0000
0000
0000
0000
0000
0000
0000
0000
0000
0000
0000
0000
0000
0000
0000
0000
0000
0000
0000
0000
0000
0000
0000
0000
0000
0000
0000
0000
0000
0000
0000
0000
0000
0000
0000
0000
0000
0000
0000
0000
0000
0000
0000
0000
0000
0000
0000
0000
0000
0000
0000
0000
0000
0000
0000
0000
0000
0000
3003
0000
0000
0000
0000
0000
0000
0000
0000
0000
0000
0000
0000
0000
0000
0000
0000
0000
0000
0000
0000
0000
0000
0000
0000
0000
0000
0000
0000
0000
0000
0000
0000
0000
0000
0000
0000
0000
0000
0000
0000
0000
0000
0000
0000
0000
0000
0000
0000
0000
0000
0000
0000
0000
0000
0000
0000
0000
0000
0000
0000
0000
0000
0000
0000
0000
0000
0000
0000
0000
0000
0000
,  // measure 61
0010
0000
0000
0000
0110
0000
0000
0000
1000
0000
1000
0000
0001
0000
0010
0001
,  // measure 62
0100
0000
0000
0000
0010
0000
1000
0001
0200
0000
0000
0000
0000
0000
0000
0000
,  // measure 63
0310
0000
0000
0000
1000
0000
0010
0000
0100
0000
0000
0000
0001
0010
0100
0000
,  // measure 64
1001
0000
0100
0001
1000
0100
0011
0000
,  // measure 65
0010
0000
0100
0000
0001
1000
0001
1000
,  // measure 66
0001
0000
0100
0000
0010
1000
0100
0000
,  // measure 67
0001
0100
1000
0100
0001
0010
1000
0010
,  // measure 68
0001
0100
1000
0100
0001
0000
0010
0000
,  // measure 69
0011
0000
0100
0000
1000
0010
1000
0000
,  // measure 70
0001
0100
0001
0000
0100
0000
0100
0000
,  // measure 71
0010
1000
0010
1000
0001
0100
0001
0100
,  // measure 72
0110
1000
1010
1001
,  // measure 73
0110
0100
0200
0000
0000
0000
0300
0000
,  // measure 74
0001
0000
0100
0000
,  // measure 75
0010
0000
1000
0000
,  // measure 76
0001
1000
0001
1000
,  // measure 77
0010
1000
0010
1000
,  // measure 78
0100
0000
0010
0000
,  // measure 79
0001
0000
0100
0000
,  // measure 80
0001
0010
0001
0010
,  // measure 81
1000
0010
0001
1000
,  // measure 82
0001
0000
0100
0000
,  // measure 83
0010
0000
1000
0000
,  // measure 84
0010
1000
0010
0100
,  // measure 85
0001
0010
0001
0010
,  // measure 86
0100
0000
1000
0000
,  // measure 87
0010
0000
0100
0000
,  // measure 88
2002
0000
0000
3000
,  // measure 89
0020
0000
0000
0033
,  // measure 90
0001
0010
0100
0010
,  // measure 91
0100
1000
0010
0000
,  // measure 92
0100
0001
0100
0010
,  // measure 93
1000
0001
0100
0000
,  // measure 94
0010
0000
0010
0000
,  // measure 95
0001
1000
0001
0000
,  // measure 96
0011
0000
1100
0000
,  // measure 97
0011
0000
0012
0000
,  // measure 98
0103
0010
1000
0000
,  // measure 99
0100
0001
0100
0000
,  // measure 100
0010
1000
0010
1000
,  // measure 101
0001
0100
0001
0100
,  // measure 102
0010
0000
1010
0000
,  // measure 103
0101
0000
1001
0000
,  // measure 104
2002
0000
0000
0000
,  // measure 105
3003
0000
0000
0000
,  // measure 106
1000
0000
0000
1000
,  // measure 107
0000
0000
1000
0000
,  // measure 108
0000
1000
0000
0000
,  // measure 109
0100
0000
0000
0100
,  // measure 110
0000
0000
0010
0000
,  // measure 111
0000
0001
0000
0000
,  // measure 112
0001
0000
0000
0100
,  // measure 113
0000
1000
0010
1001
,  // measure 114
0100
0010
0100
0001
,  // measure 115
0011
0100
0100
0010
,  // measure 116
1000
0010
0100
0010
,  // measure 117
1001
0100
0110
0000
,  // measure 118
0001
1000
0010
0100
,  // measure 119
1001
0000
0010
0001
,  // measure 120
0010
0001
0010
0000
,  // measure 121
1010
0000
0010
0010
,  // measure 122
1001
0000
0010
0000
0100
0100
0001
0000
,  // measure 123
0010
0000
0100
0000
1000
1000
0010
0000
,  // measure 124
0100
0000
0001
0000
0010
0010
0100
0000
,  // measure 125
1000
0010
0100
0001
1000
0010
0110
0000
,  // measure 126
0200
0000
0300
0000
;

//---------------dance-single - zuzozozozo----------------
#NOTES:
     dance-single:
     zuzozozozo:
     Beginner:
     5:
     0.241,0.594,0.189,0.122,0.000:
0000
0000
0000
0000
,
0000
0000
0000
0000
,
0000
0000
0000
0000
,
0000
0000
0000
0000
,
0000
0000
0000
0000
,
0000
0000
0000
0000
,
0000
0000
0000
0000
,
0000
0000
0000
0000
,
1000
0000
0000
0000
,
1000
0000
0000
0000
,
0001
0000
0000
0000
,
0001
0000
0000
0000
,
0010
0000
0000
0000
,
0010
0000
0000
0000
,
0100
0000
0000
0000
,
1001
0000
0000
0000
,
0100
0000
0000
0000
,
0010
0000
0000
0000
,
0001
0000
0000
0000
,
1001
0000
0000
0000
,
0010
0000
0000
0000
,
0100
0000
0000
0000
,
0010
0000
0000
0000
,
1001
0000
0000
0000
,
0001
0000
0000
0000
,
0010
0000
0000
0000
,
0100
0000
0000
0000
,
1100
0000
0000
0000
,
0100
0000
0000
0000
,
0010
0000
0000
0000
,
0001
0000
0000
0000
,
1001
0000
0000
0000
,
0010
0000
0010
0000
,
0100
0100
0100
0000
,
0001
0000
0010
0000
,
1000
1000
1000
0000
,
0100
0000
1000
0000
,
0001
0001
0001
0000
,
0010
0000
0001
0000
,
0100
0100
0100
0000
,
0010
0000
1000
0000
,
0001
0100
0001
0100
,
0001
0000
0010
0000
,
1010
0000
0000
0000
,
0100
0000
0010
0000
,
1000
0010
1000
0010
,
1000
0000
0010
0000
,
1001
0000
0000
0000
,
1001
0000
0010
0000
,
0100
0000
0001
0000
,
1000
0000
0010
0000
,
0001
0000
2002
3003
,
1001
0000
0000
0000
,
0100
0000
0000
0000
,
0010
0000
0000
0000
,
1010
0000
0000
0000
,
0100
0000
0000
0000
,
1000
0000
0000
0000
,
0011
0000
0000
0000
,
1001
0000
0000
0000
,
0010
0000
0100
0000
,
0001
0000
0011
0000
,
1000
0000
0010
0000
,
0100
0000
0001
0000
,
0001
0000
1000
0000
,
0010
1000
0010
1000
,
0010
0000
0100
0000
,
0001
1000
0001
1000
,
0001
0000
0010
0000
,
0010
0100
0010
0100
,
0010
0000
1000
0000
,
0010
0100
0010
1000
,
0002
0000
0000
0003
,
0010
0000
0000
0000
,
1000
0000
0000
0000
,
0001
0000
0010
0000
,
0001
0000
1000
0000
,
0010
0000
0000
0000
,
0100
0000
0000
0000
,
1001
0000
0000
0000
,
0001
0000
0001
0000
,
0010
0000
0000
0000
,
0100
0000
0000
0000
,
1000
0000
0001
0000
,
1000
0000
0010
0000
,
0110
0000
0000
0000
,
0010
0000
0000
0000
,
0010
0000
0001
0000
,
1000
0000
0001
0000
,
1001
0000
0000
0000
,
0100
0000
0000
0000
,
0001
0000
1000
0000
,
0010
0000
0100
0000
,
1001
0000
0000
0000
,
0010
0000
0000
0000
,
0110
0000
0010
0000
,
0100
0000
0010
0000
,
0011
0000
0000
0000
,
1000
0000
0000
0000
,
0010
0000
0100
0000
,
0010
0000
1000
0000
,
0011
0000
0000
0000
,
0100
0000
0010
0000
,
0220
0000
0000
0000
,
0330
0000
0000
0000
,
1000
0000
0000
1000
,
0000
0000
0001
0000
,
0000
0001
0000
0000
,
1000
0000
0000
1000
,
0000
0000
0001
0000
,
0000
0001
0000
0000
,
0100
0000
0000
1001
,
0000
1001
0000
2002
,
0000
3003
0000
0000
,
0200
0000
0000
0000
,
0302
0000
0000
0000
,
2003
0000
0000
0000
,
3020
0000
0230
0000
,
0302
0000
0023
0000
,
0130
0010
0100
1000
,
0001
0100
0010
0100
,
1001
0000
0010
0000
0100
0100
0010
0100
,
0001
0000
1000
0100
0022
0000
0000
0033
,
0010
0000
0100
0000
1000
1000
0010
0100
,
0001
0010
0100
0010
,
2002
0000
0000
0000
0000
3003
0000
0000
;
