#TITLE:ArtcoreShrine;
#ARTIST:An;
#FILE:ArtcoreShrine.mp3;
#BPM:190.000;
#GAP:120;
#SAMPLESTART:102.419;
#SAMPLELENGTH:12.000;
#CDTITLE:215edit.png;
#CHANGEBPM:768.000=95.000,832.000=190.000,960.000=95.000,1024.000=190.000,1168.000=379.998,1936.000=94.999;
#SINGLE:MANIAC:17:
20060824
80064848
20060824
8!8000A000
20020826
20084282
40060282
6!6000B000
42890862
84830848
28290468
286B0824
82670262
68210868
64870282
(B007003080B!B000B0)
8!80940846
82820826
2!20320842
90682428
2!20A20468
6!60924628
46468686
4!4080B000
2!20160264
26280684
8!80940268
10428482
8!80940642
4!40186482
64662426
B!B000B000
B828!80842
(8020868680208060)
4827!70772
(6020848480206020)
8263!30382
(8040646460804080)
6287!70738
(2080424840608020)
B!BB0B0882
84286828
B!BB0A0622
(4000686828282424)
B!BB0A0248
68424868
406272B2
8!80007000
(B002084260062482)
(600B04846!60003000)
(900704868!800A6284)
(B00308248!8080B000)
(A000B00082007000)
(9000A00064007000)
(A00030004800A000)
(9000100082009000)
(A00090004200B000)
(A00070002600B000)
(700030002800A000)
B!B0000B00
(8241082842630824)
(6263084248290824)
(6287048684290624)
(826B084286284626)
B6282846
98242624
72648684
B6828682
12482826
96848624
78684868
12624262
B!B0000B00
B!4000702!20
00302020
80406864
24282828
68626260
00706040
30008428
62842862
842862B0
00808!8070
2!20A06824
82682482
84248280
00704060
30004848
28282626
8!80007030
00202080
40802624
28468286
28428240
00804!40B0
20008462
84628428
24628460
00202080
20604286
28428628
204080B!B0
B0B02080
28468248
28428628
B!B0B0007!70
70003!3030
00A!A0A000
B!B0B0009!90
90001!1010
009!909000
A!A0A000B0
003000B0
40806040
20602040
20608040
80608040
60204080
20604080
2!2A428!892!2A
42!2A6!6928!8A
(B!400B!609248!80076242)
(6!600904867!7080B!6060)
(3!330B08282!200A6824)
(8!80070428B0002000)
B!B000000B
;
#SINGLE:SMANIAC:20:
00000000
00000000
00000000
00000000
00000000
00000000
00000000
00000000
(A040602848203084)
(2080904848403000)
(2040608246207064)
(208030868680B082)
(8040A04868207042)
(6060A0646460A000)
(7080308484823082)
(B00B00B082828064)
A0BB0884
(4686424828264826)
20730226
(9000428628264826)
A0770468
(6824826824848262)
(A000907028282626)
(B!40008000200000B4)
2!201!4B0337
(2826428682482626)
8!80911868
(1000426248262462)
8!80940942
(9060824682482646)
(B000424282828686)
2!20006002
(B080206042606020)
(8840486426824684)
(826284B!B00BB07020)
(8260428684624826)
(8684243!3003307020)
(8820648462648462)
(4262827!7007703040)
(8880424846282628)
B!BBAB0228
(9060868284828628)
B!BBAA!20332
(4242428282828686)
B!BBBA027A
(2628242824282628)
(4000303082828182)
8!8008B000
{B000200080004000600020008000400020008000608060806000800020008000}
{6000200080004000600020008000400020004000804080408000200060002000}
{8000400060008000200080006000800020004000802080208000200060008000}
{60008000200040008000200060002000800040002000800060406040B0000000}
A2846284
(2060282820806080)
48624262
(8040646460206020)
46848426
(2040626260408020)
(6828682428248262)
(B!B0066!6006B0000000)
(A!800706628!800A2826)
(7!400B08626!6000B000)
(B!400B08826!600B8484)
(2!200306821!1010B!B0B0)
(70A0306848603084)
(A0A030624260B000)
(A0B0A04288209068)
(409090428866B0AA)
(B090A04286801068)
(3030702686207000)
(7070308424803087)
(3030702828268246)
B!B0000B00
44602284
66824826
62846848
62844822
B!B0B084A0
68462462
42624284
82868246
30842042
62426486
22846628
84682466
A0824412
86828246
28462426
84828246
90888022
10688246
28846638
42482826
90428068
22482644
6828682A
10682824
286268A!A0
0A44826!63
28282682
46848684
908260B0
26824842
8!80000000
80000000
[484200800600800200868200]
[400200800200828600400200]
[800600828600400200800200]
[484600800200400200868200]
[400200800600828600400200]
[800200424800400400200800]
[686400200800800200686200]
[200600484600800800242800]
98242868
24842862
84286828
68242824
28626824
84286824
28686824
28628428
6!60000000
00000000
00000000
00000000
B0000000
;
#SINGLE:ANOTHER:13:
00000000
00000000
00000000
00000000
00000000
00000000
00000000
00000000
20020628
20068282
400B0848
40007000
20020428
60084846
20060828
(B00A00A!A000A00000)
B00B0282
40062686
200B0484
8000A000
B0090428
60062426
200B0426
2!20001000
B00B0486
20062482
60070626
2!20003000
30070684
20042684
80030862
B!B000B000
68240098
28246282
682A!A0A82
48684868
4289!90962
42684824
6267!70726
28424682
B!BB0B0228
26824282
B!BB0A0488
60882288
B!BB0A0862
42686242
60482846
8!80000080
(4002068240082828)
(2007028280006000)
(900404828!80076284)
(200906682000B000)
8!80070282
6!600B2824
600B0284
60003000
4!40070228
20068242
9!600B0646
B!B0000B00
(8008022840028682)
(7006086460002000)
(7006048460028428)
(20060682B000B000)
84208620
84286280
84606480
68248260
42408680
48684860
22486284
64266824
00000000
8!800000A0
00602040
20802060
40208020
4!400000B0
00202080
20602080
40204060
6!60000090
00802020
40608020
80206020
4!40000070
00208040
60008040
20408000
3!60000030
00608040
60204080
20604080
2!20000030
00408040
60004040
60602020
B0009090
00202080
40608020
40208060
80002020
80206020
40004000
3000B000
2!2020008!80
80004!4040
006!606000
2!2020008!80
80004!4040
006!606000
2!202000B0
00B000B0
60208020
80408040
60206020
60806080
20402040
80208020
60406020
64646464
(B002062840068286)
(200A04286!60006000)
(300B088620046828)
(2006084830002000)
B0000000
;
#SINGLE:BASIC:9:
00000000
00000000
00000000
00000000
00000000
00000000
00000000
00000000
60004000
80802000
60004000
80208040
60008000
20206020
80004000
(2002002000000000)
60208080
20602020
80402040
40206020
40808020
20604080
20606080
40806020
80406060
20808020
60802040
40802060
40606080
40802040
20602040
80000000
80406020
80407000
60806060
20407000
20604080
20209000
40408020
6060B000
80208080
40608020
20408040
7!70000070
20608080
60402040
60204020
A!A00000A0
(2000A00060604024)
(800020648!80000000)
(A000602080004280)
308868A0
60604840
20802620
80406860
80204840
80206460
20804240
60802820
`0B!B0000000000000000000000000000000000000000000000000000000000000000000000000000000000000000000000000000000000000000000000B00000000000000000000000000000000000000000000000000000000000000000000000'
(8000A00040406086)
(200080462!20000000)
(A000408020006820)
B0264290
80206464
60208420
62426848
62426080
90204840
62602020
84846262
A04070B0
A22!200020
60002000
80004000
60406040
80408040
20008000
60002000
60806080
40806040
60002000
80004000
80408020
60806080
20004000
80002000
B!B0000040
8!80000090
60802080
20408000
20602080
40602000
80008000
60406000
90001000
90009!6000
30804000
20602000
80408040
60206020
80007000
3000B000
B!B0000000
B0000000
40000040
00004000
00400000
20000020
00008000
00600000
60000020
004080B0
20802060
90202080
40802080
B020A000
60408020
B0008060
80608000
70008080
B0802260
80204480
20608820
482648A0
2!20002000
;
#SINGLE:BEGINNER:5:
00000000
00000000
00000000
00000000
00000000
00000000
00000000
00000000
40000000
40000000
60000000
60000000
80000000
80000000
20000000
B0000000
20000000
80000000
60000000
B0000000
80000000
20000000
80000000
B0000000
60000000
80000000
20000000
10000000
20000000
80000000
60000000
B0000000
80008000
20202000
60008000
40404000
20004000
60606000
80006000
20202000
80004000
60206020
60008000
70000000
20008000
40804080
40008000
B0000000
B0008000
20006000
40008000
6000B!B0B0
B0000000
20000000
80000000
70000000
20000000
40000000
90000000
B0000000
80002000
60009000
40008000
20006000
60004000
80408040
80002000
60406040
60008000
80208020
80004000
80208040
6!60000060
80000000
40000000
60008000
60004000
80000000
20000000
B0000000
60006000
80000000
20000000
40006000
40008000
A0000000
80000000
80006000
40006000
B0000000
20000000
60004000
80002000
B0000000
80000000
A0008000
20008000
90000000
40000000
80002000
80004000
90000000
20008000
A!A0000000
A0000000
40000040
00006000
00600000
40000040
00006000
00600000
200000B0
00B000B!B0
00B00000
2!20000000
3!60000000
B!40000000
7!8000A!2000
3!60009!8000
A0802040
60208020
B0802282
60429!9009
80204482
60802080
B!B0000B00
;
