#TITLE:Come To Me;
#SUBTITLE:;
#ARTIST:Clon;
#TITLETRANSLIT:;
#SUBTITLETRANSLIT:;
#ARTISTTRANSLIT:;
#GENRE:;
#CREDIT:;
#BANNER:Come To Me.png;
#BACKGROUND:Come To Me-bg.png;
#LYRICSPATH:;
#CDTITLE:;
#MUSIC:Come To Me.mp3;
#OFFSET:-0.030;
#SAMPLESTART:26.111;
#SAMPLELENGTH:17.925;
#SELECTABLE:YES;
#BPMS:0.000=137.800;
#STOPS:;
#BGCHANGES:;
#KEYSOUNDS:;

//---------------dance-single - 370K----------------
#NOTES:
     dance-single:
     370K:
     Challenge:
     10:
     0.640,0.785,0.342,0.128,0.561:
0000
0000
0000
0000
,
0000
0000
0000
0000
,
0000
0000
0000
0000
,
4004
0000
0000
3003
0000
0000
0000
0000
0000
0000
0100
0000
0010
0000
0001
0000
,
0010
0000
0000
0010
0000
0000
0040
0000
0000
0000
0000
0000
0000
0030
0000
0000
,
0000
0000
0000
0000
,
0000
0000
0000
0000
,
1001
0000
0000
0000
0000
0000
0000
0100
,
1001
0000
0000
0000
,
0010
0100
1000
0100
0010
0001
0010
0100
1000
0100
0010
0001
0010
0001
0010
0100
,
0010
0000
0000
0100
0000
0000
0010
0000
0000
0001
0000
0000
1000
0000
0000
0001
0000
0000
1000
0000
0000
0001
0000
0000
4000
0000
0004
0000
0000
0000
0000
0000
0000
0000
0000
0000
0000
0000
0000
0000
0000
0000
0000
0000
0000
0000
0003
0000
,
3000
0000
0200
0300
0010
0010
0000
0000
,
0000
0000
0100
0000
1001
0000
0000
0000
1001
0000
0001
1000
0001
0000
0010
0000
,
0100
0000
1000
0000
0100
0000
0010
0001
0010
0000
0100
0000
1100
0000
0000
0000
,
1000
0100
0010
0001
1000
0100
0010
0001
0010
0400
4000
0000
0000
0000
3300
0000
,
1100
0000
0000
0110
0000
0000
0011
0000
0000
0000
0010
0000
0100
0000
1000
0000
,
0100
0000
0000
0100
0000
0000
0100
0000
0100
0010
0001
0010
0100
1000
0100
0010
,
0011
0000
0000
0110
0000
0000
0101
0000
0000
0000
0001
0010
0100
0000
1000
0000
,
0100
0000
0010
0001
0100
0000
0010
0000
0000
0000
1000
0000
0100
0000
0020
0000
,
0002
0000
0000
1000
0000
0033
0000
0000
,
0000
0100
0010
0001
0100
1000
1000
0010
,
0002
0000
0000
0200
0000
0000
0000
0000
,
1000
0010
0000
0010
1000
0000
0010
1000
0010
1000
0010
1000
0010
1000
0313
0000
,
1000
0000
0100
0000
0010
0000
0010
0000
0100
0000
0001
0100
0010
0000
0000
0000
,
1000
0000
0001
0000
0010
0000
0100
0000
0001
0000
1000
0100
1000
0000
0000
0000
,
1000
0000
0100
0010
0001
0000
0010
0000
0100
0000
1000
0100
0010
0000
0000
0000
,
0001
0000
0010
0000
0100
1000
0100
0000
0010
0001
0010
0000
1100
0000
0000
0000
,
0100
0000
0010
0000
0010
0000
1000
0100
0010
0001
0010
0100
1000
0100
0010
0001
,
0100
0000
0100
0000
0110
0000
0001
0000
0010
0100
1000
0000
1001
0000
0000
0000
,
1000
1000
0100
0100
,
0001
0000
0001
0000
0001
0000
0001
0000
0001
0010
0100
1000
0100
0010
0001
0000
,
1MM1
0000
1000
0100
0010
0000
0001
0010
0100
0000
1000
0010
0100
0000
0001
0100
,
0010
0000
1000
0100
0001
0000
0001
0100
1000
0000
1000
0010
0001
0000
0001
0010
,
1000
0000
0100
0010
0100
0000
0001
1000
0001
0000
0010
0100
0010
0000
1000
0100
,
1000
0000
0001
0010
0001
0000
1000
0001
1000
0000
0100
0010
0001
0000
0000
0000
,
1MM1
0000
1000
0100
0100
0000
0001
0100
0100
0000
1000
0010
0010
0000
0001
0010
,
0010
0010
0010
0000
0000
0000
1000
0000
0000
0000
0100
0010
0001
0000
0010
0000
,
1000
1000
0100
0100
0010
0010
0001
0001
,
1001
0000
0001
0010
0100
1000
0100
0010
0001
0010
0100
1000
0100
1000
0100
1000
,
0110
0000
0000
1001
0000
0000
0110
0000
0000
0000
0011
0000
0110
0000
1100
0000
,
0020
0000
0000
0002
0000
0000
2000
0000
0000
0000
0100
0000
0100
0000
3133
0000
,
0100
0000
0000
0100
0000
0000
0100
0000
0000
0000
0010
0100
1000
0100
0010
0001
,
0010
0100
0000
0000
0110
0000
1100
0000
0000
0000
0010
0000
0001
0000
0100
0000
,
0200
0000
0000
4000
0000
0000
3300
0000
,
0000
0100
0010
0001
0110
0100
1100
0100
,
0220
0000
0000
0000
0000
0000
4004
0000
0000
0000
0000
0000
3333
0000
0100
1000
,
0100
0000
0000
0010
0000
0000
0001
0000
0000
0010
0000
0000
0100
0000
0000
0010
0000
0000
0001
0000
0000
0010
0000
0000
0400
0000
4000
0000
0000
0000
0000
0000
0000
0000
0000
0000
0000
0000
0000
0000
0000
0000
3300
0000
0000
0000
0000
0000
,
1000
0000
1000
0010
0100
0000
0000
0000
0001
0000
0001
1000
0100
0000
1000
0100
,
1000
0000
0100
0000
0100
0000
0010
0001
0010
0000
0110
0000
0100
0000
0100
1000
,
0100
0000
0010
0000
0001
0000
0010
0001
1000
0000
0100
0000
0110
0000
0000
0000
,
1000
0100
0000
0100
1000
0000
0100
0010
0001
0010
0100
1000
0100
0010
0001
0010
,
0002
0400
0000
0000
0000
0000
0000
0000
,
0000
0000
0303
0000
;

