#TITLE:First Love;
#SUBTITLE:;
#ARTIST:Clon;
#TITLETRANSLIT:;
#SUBTITLETRANSLIT:;
#ARTISTTRANSLIT:;
#GENRE:;
#CREDIT:;
#BANNER:First Love.png;
#BACKGROUND:First Love-bg.png;
#LYRICSPATH:;
#CDTITLE:;
#MUSIC:First Love.mp3;
#OFFSET:-5.080;
#SAMPLESTART:40.317;
#SAMPLELENGTH:12.000;
#SELECTABLE:YES;
#BPMS:0.000=142.800;
#STOPS:;
#BGCHANGES:;
#KEYSOUNDS:;

//---------------dance-single - 370K----------------
#NOTES:
     dance-single:
     370K:
     Challenge:
     10:
     0.723,0.703,0.629,0.029,0.364:
0000
0000
0000
0000
,
1000
0000
0000
0100
0010
0000
0001
0000
0010
0000
0010
0000
0100
0000
0100
0000
,
1100
0000
0000
0100
1000
0000
0010
0000
0001
0000
0100
0000
1000
0000
1001
0000
,
1001
0000
0000
0010
0100
0000
0100
0000
1000
0000
1000
0000
0200
0000
0010
0000
,
0310
0000
0000
0010
0000
0000
0100
0000
1000
0100
1000
0100
1000
0100
1000
0000
,
0110
0000
0001
0010
0100
0000
1000
0100
0010
0000
0010
0100
0010
0000
0001
0100
,
0001
0000
1000
0100
1000
0000
0100
0010
0100
0000
0001
1000
0001
0000
1000
0001
,
1000
1000
0100
0010
0001
0001
0010
0100
,
1000
0100
0000
0000
0000
0100
0010
0100
,
0100
0000
0100
1000
0010
0000
0001
0100
0010
0000
1000
0010
0100
0000
0001
0010
,
1000
0000
1000
0100
0001
0000
0001
1000
0100
0000
1000
0010
0001
0000
0001
0000
,
0010
0010
0100
0100
1000
1000
0100
0010
,
0001
0000
0000
0001
0010
0000
0001
0000
0010
0000
0100
1000
0100
0000
0010
0000
,
0101
0000
0010
1000
0010
0000
0010
0001
0010
0000
0100
1000
0100
0000
0100
0001
,
0100
0000
1000
0001
1000
0000
1000
0010
1000
0000
0001
0100
0001
0000
0001
1000
,
0001
0100
0010
1000
0001
0001
0010
0100
,
1100
0000
1010
0000
0000
0000
0000
0000
0000
0000
0010
0100
0010
0000
1000
0000
,
0100
0010
0100
0100
1000
0010
0001
0010
,
0100
0010
1000
1000
0001
0010
0100
0001
,
1000
1000
0100
0100
0110
0110
0011
0111
,
1111
0000
0010
0000
0010
0000
0010
0000
0010
0100
0010
0100
0010
0100
0010
0100
,
0110
0000
1000
0100
0010
0000
0001
0010
0100
0000
0100
0000
1100
0000
0000
0000
,
1001
1010
0101
0110
,
0012
0010
0110
0100
1100
1000
1010
0010
,
1113
1000
0100
0001
,
0210
0010
0011
0010
1010
0010
0011
1010
,
1311
0000
0100
0010
0001
1000
0100
1000
,
1001
0000
0101
0000
0000
0000
0010
0000
0000
0000
1000
0000
1000
0000
0100
1000
,
0100
0010
0010
0010
1010
0011
0110
1100
,
0011
0000
0001
0010
0001
0000
0001
1000
0001
0000
0001
0100
0001
0000
0001
0010
,
0001
0000
1000
0001
1000
0000
1000
0100
1000
0000
1000
0001
1000
0000
1000
0010
,
1000
0000
0100
0110
0000
1001
0000
0110
,
0000
0100
1000
0100
0100
0010
0010
0001
,
1001
0000
1001
1100
0110
0000
0000
0000
,
0011
0001
0010
0100
1000
0100
0010
0100
,
0011
0100
1000
0100
0001
0100
1000
0100
,
1100
0000
0000
0010
0100
0010
0100
0010
0100
0010
0100
0010
0001
0010
0100
1000
,
1001
0000
1001
0000
0110
0010
0011
0010
,
0110
0000
1000
0100
1000
0000
0001
0010
0100
0000
0010
0001
0010
0000
0100
1000
,
0010
0000
1000
0001
0100
0000
0100
0010
1000
0000
0100
0010
0100
0000
1000
0001
,
1000
1000
0100
0001
0100
1000
1000
0010
,
0010
0000
0000
0010
0000
0000
0040
0000
0000
0000
0000
0000
0000
0030
0000
0000
,
1001
0001
0000
0010
0000
0100
1000
0100
,
0000
1001
0000
0011
0000
0001
0001
0010
,
0100
1000
1000
0100
0100
0010
0001
0010
,
0100
0000
0100
1000
0100
1000
0100
0010
0001
0010
0100
1000
0100
0010
0001
0010
,
0004
0000
0000
0000
0000
0100
0100
0100
,
0103
0000
0001
0010
0001
0000
0001
0000
0010
0000
0010
0000
0100
0000
1100
0000
,
0040
0000
0000
0000
0000
0001
0001
0001
,
0031
0100
1000
0100
0100
0110
1001
0110
,
4004
0000
0000
0000
0000
0100
0010
0100
,
3013
1000
0001
0010
0100
1000
0100
0001
,
0440
0000
0000
0000
0000
0000
0000
0000
0000
0000
1000
0000
0001
0000
1330
0100
,
0010
0001
0100
0000
0100
0000
0001
0000
0001
0000
0010
0000
0011
0000
0101
0000
,
1001
1000
1000
1000
,
1111
0000
0000
0000
;

