#TITLE:Warning;
#SUBTITLE:;
#ARTIST:Tashannie;
#TITLETRANSLIT:;
#SUBTITLETRANSLIT:;
#ARTISTTRANSLIT:;
#GENRE:;
#CREDIT:;
#BANNER:Warning.png;
#BACKGROUND:Warning-bg.png;
#LYRICSPATH:;
#CDTITLE:;
#MUSIC:Warning.mp3;
#OFFSET:-1.128;
#SAMPLESTART:17.761;
#SAMPLELENGTH:15.000;
#SELECTABLE:YES;
#BPMS:0.000=110.000;
#STOPS:;
#BGCHANGES:;
#KEYSOUNDS:;

//---------------dance-single - 370K----------------
#NOTES:
     dance-single:
     370K:
     Challenge:
     13:
     0.729,1.000,1.000,0.085,0.249:
1000
1000
0001
0001
,
0100
0100
0010
0010
,
1000
1000
1000
0000
0001
0001
0001
0000
,
0010
0010
0010
0100
0100
0100
0100
0000
,
1000
0010
0001
0100
1000
1000
0100
0010
,
0100
0001
0001
1000
0100
0110
M111
0000
,
111M
1M11
11M1
1111
,
1MM1
0000
1MM1
0000
1M11
M111
1111
0000
,
M111
0001
11M1
0100
111M
0010
1M11
0000
,
11M1
0100
111M
0001
M111
0100
1111
0000
,
0010
11M1
0100
1M11
,
0001
111M
1000
M111
,
111M
0001
M111
0100
1M11
1000
11M1
0000
,
1111
M111
111M
11M1
1M11
1111
1MM1
0000
,
1000
0100
0001
0010
,
1000
0100
0010
1111
,
22M2
0000
0010
00M0
0010
00M0
0010
00M0
0010
00M0
0010
00M0
0010
00M0
3313
0000
,
M222
0000
1000
M000
1000
M000
1000
M000
1000
M000
1000
M000
1000
M000
1333
0000
,
2M22
0000
0100
0M00
0100
0M00
0100
0M00
0100
0M00
0100
0M00
0100
0M00
3133
0000
,
1111
1111
1111
1111
1111
1111
1111
1111
,
1000
1000
1000
0000
0100
0000
0000
0000
0001
0001
0001
0000
0010
0000
0000
0000
,
1000
1000
1000
0000
0100
0100
0100
0000
0010
0010
0010
0010
0010
0000
0000
0000
,
0100
0100
0100
0100
0100
0000
0000
0000
0010
0010
0010
0010
0010
0000
0000
0000
,
4400
0000
0000
0000
0000
0000
0000
0000
0000
0000
0000
0000
3300
MM00
0000
0000
0000
0000
0000
0000
0000
0000
0000
0000
,
1111
0000
0001
0001
0100
0100
1000
1000
,
0010
0010
0000
0100
0000
0100
0100
0000
,
1111
M111
M111
111M
111M
1111
1111
0000
,
1000
1000
1000
0000
0001
0001
0001
0000
,
0100
0100
0100
0000
0100
0101
M111
0000
,
1000
0000
1100
0000
111M
0000
0000
0000
0100
0101
1101
0000
1111
0000
0000
0000
,
0010
0110
1011
0000
1111
0000
0000
0000
1000
0100
0010
0000
0001
0000
0000
0000
,
0001
0010
0100
0000
1000
0000
0000
0000
0100
0010
0100
0010
0100
0000
0000
0000
,
1111
M111
111M
1M11
,
11M1
111M
111M
M111
,
M111
11M1
11M1
1M11
,
1M11
0001
11M1
1000
M111
0100
111M
0000
,
0010
1000
0100
1000
,
0001
0001
1000
0001
,
0010
0100
0100
M11M
,
M1M1
1M1M
M111
1111
,
0001
0011
M111
0000
1000
1100
111M
0000
0010
0110
1M11
0000
0100
0100
11M1
0000
,
0100
0010
0100
0001
,
1100
0110
0011
0000
0011
0110
1100
0000
,
1000
0100
0010
0001
0010
0100
1000
0100
0110
0000
M111
0000
1111
0000
0000
0000
,
1000
0010
0001
0010
1000
0010
0001
0000
0010
0000
0110
0000
1M11
0000
0000
0000
,
1000
0100
0001
0100
1000
0100
0001
0000
1000
0000
1010
0000
11M1
0000
0000
0000
,
1000
1000
1000
0000
0001
0001
0001
0000
0010
0010
0010
0000
0100
0100
0100
0000
,
M111
111M
11M1
1M11
,
1111
MMMM
0000
0000
;

