#TITLE:Heartlessness;
#SUBTITLE:;
#ARTIST:Chae Jung Ahn;
#TITLETRANSLIT:;
#SUBTITLETRANSLIT:;
#ARTISTTRANSLIT:;
#GENRE:;
#CREDIT:;
#BANNER:Heartlessness.png;
#BACKGROUND:Heartlessness-bg.png;
#LYRICSPATH:;
#CDTITLE:;
#MUSIC:Heartlessness.mp3;
#OFFSET:0.000;
#SAMPLESTART:3.920;
#SAMPLELENGTH:12.000;
#SELECTABLE:YES;
#BPMS:0.000=137.001;
#STOPS:;
#BGCHANGES:;
#KEYSOUNDS:;

//---------------dance-single - 370K----------------
#NOTES:
     dance-single:
     370K:
     Challenge:
     8:
     0.658,0.780,0.576,0.157,0.482:
0000
0000
0000
0000
,
0000
0000
0000
0000
,
0000
0000
0000
0000
1000
0000
0100
0000
0010
0000
0001
0010
0000
0010
0001
0010
,
0100
1000
0100
0000
0010
0000
0001
0000
0010
0000
0100
1000
0000
0000
0010
0001
,
0010
0000
0000
0000
0011
0000
0001
0000
0010
0000
0100
0010
0100
0000
0110
0000
,
0011
0000
0001
0010
0100
1000
0100
0010
0001
0010
0100
0010
0001
0010
0100
1000
,
0100
1000
0100
1000
0100
0000
0000
0000
0100
0000
0000
0000
0010
0000
0000
0000
,
0001
0010
0100
1000
1000
1000
1001
0000
,
0110
0010
0010
0010
,
0010
1000
0100
0001
0010
0100
0100
0000
,
0110
1000
0001
1000
,
0001
0010
M01M
M10M
M10M
M01M
M01M
0110
,
0000
0110
0000
2200
0010
0001
0000
0010
,
0000
0010
0000
0001
0000
0001
0020
0030
,
0001
3311
0011
0011
,
0011
0001
0010
0100
0100
1000
1000
0000
,
0000
1001
0110
1001
,
M01M
M01M
M10M
M10M
M01M
M01M
2002
0000
,
3113
0000
0000
0100
0010
0000
1001
0000
,
1001
0001
1000
0010
0100
0001
1000
0100
,
0010
0000
0000
0022
0100
1000
0000
1000
,
0000
0100
0000
1000
0100
0100
0200
0300
,
0133
0000
0001
0000
0100
1000
0100
0000
,
0010
0000
0001
0010
0001
0000
0101
0000
,
MMMM
0000
0100
1000
0100
0010
0001
0100
,
0101
0000
0000
0000
0011
0000
0000
1001
0000
0000
0110
0000
1001
0000
0000
0000
,
MMMM
0000
0000
0000
0001
0000
1000
0000
0100
0000
1000
0000
0001
0010
0001
0000
,
1000
0000
0100
0100
0100
0000
0110
0000
,
1MM1
0000
0000
0000
1000
0100
1000
0100
1000
0000
0010
0000
0001
0000
0010
0000
,
0000
0000
0000
0000
0011
0000
0000
1001
0000
0000
0110
0000
1001
0000
0000
0000
,
1MM1
0000
0000
0000
1000
0100
1000
0100
1000
0000
0010
0000
0001
0100
0000
M00M
,
0100
M10M
0000
0000
1000
0100
1000
0100
1000
0000
0010
0000
0001
0100
0000
M00M
,
0100
M10M
0000
0000
0010
0001
0010
0001
0010
0000
0100
0000
0001
0010
0010
M00M
,
0010
M01M
0000
0000
0010
0001
0010
0001
0010
0000
0100
0000
0001
0010
0010
M00M
,
0010
M01M
0000
0000
1100
0000
0010
0001
0010
0001
0010
0001
1000
0000
1000
0100
,
0010
0000
0010
0001
0100
0000
0001
0000
0011
0000
0010
0001
0010
0000
0100
0001
,
0100
0000
0000
0000
0011
0000
1000
0100
1000
0100
1000
0100
0011
0000
0010
0100
,
0010
0100
0010
0100
1001
0000
0010
0001
0010
0000
0100
0010
0100
0000
1000
0100
,
1000
0000
0010
0010
0001
0001
0100
0100
,
1000
0000
1000
0000
0010
0000
0000
0010
0000
0000
0020
0000
0000
0000
0030
0000
,
0000
0010
0100
0000
0000
2000
0010
3001
,
0001
0010
0100
0200
0300
0000
1001
0000
,
0110
0000
2002
0000
3003
0110
0000
1001
,
0001
0000
0101
0000
0000
0110
0000
0000
0110
0000
0000
0110
0000
0000
0000
0000
,
0000
0010
0100
0000
1000
0100
1000
0010
,
0011
0000
0000
0000
1010
0000
0000
0101
0000
0000
2002
0000
0000
0000
0000
0000
,
0000
3003
000M
0M0M
0M0M
0M0M
0M0M
0M0M
,
0000
0000
0000
0000
1001
0000
0000
0100
1000
0100
0010
0001
0010
0100
1000
0100
,
0010
0001
0010
0100
1000
0100
0010
0001
0010
0100
1000
0100
0010
0001
0100
0000
,
MMMM
0000
0000
0000
1001
0000
0000
0000
1000
0001
0100
0010
1000
0001
0100
0010
,
1000
0001
0100
0010
0001
1000
0010
0100
0001
1000
0010
0100
0001
1000
0010
0100
,
0000
0000
0000
0000
1000
0100
1000
0100
0010
0100
0010
0100
0010
0001
0010
0001
,
0010
0001
0000
0000
4004
0000
0000
0000
0000
0000
0000
0000
0000
0000
0000
0000
,
0000
3MM3
0000
0000
;

