#TITLE:Rin toshite Saku Hana no Gotoku;
#SUBTITLE:(Nadeshiko Rock);
#ARTIST:Nijiiro Litmus;
#TITLETRANSLIT:;
#SUBTITLETRANSLIT:;
#ARTISTTRANSLIT:;
#CREDIT:Timer Rabbit;
#BANNER:nadeshikorock_bn.PNG;
#BACKGROUND:nadeshikorock_bg.PNG;
#LYRICSPATH:;
#CDTITLE:timerrabbit.png;
#MUSIC:nadeshikorock.mp3;
#OFFSET:0.000;
#SAMPLESTART:36.810;
#SAMPLELENGTH:12.000;
#SELECTABLE:YES;
#BPMS:0.000=163.000;
#STOPS:;
#BGCHANGES:;

//---------------dance-single - ----------------
#NOTES:
     dance-single:
     :
     Hard:
     8:
     0.510,0.531,0.297,0.227,0.000:
0000
0000
0000
0000
,
0000
0000
0000
0000
,
0000
0000
0000
0000
,
0000
0000
0000
0000
,
0000
0000
0000
0000
,
1000
0010
1000
0010
0100
0001
0100
0001
,
0100
1000
0100
1000
0010
0001
0010
0000
,
1000
0001
1000
0001
0100
0010
0100
1000
,
0100
0010
0001
0010
0100
1000
0000
1000
,
0010
0100
0001
1000
0100
0010
0001
0010
,
0100
1000
0001
0100
0010
0001
1000
0000
,
0010
0001
0100
1000
0100
0010
1000
0001
,
1000
0100
1000
0100
0000
0000
0000
0001
,
1002
0000
1000
0000
1000
0000
1000
0003
,
0100
0000
0001
0000
0010
0000
1000
0100
,
1000
0000
0010
0001
0010
0000
0100
0010
,
0200
0000
0000
0000
0300
0000
0001
2000
,
0001
0001
0001
3001
,
0100
0010
1000
0000
,
0010
0000
0100
0000
,
2002
0000
0000
0000
0000
3003
0000
0000
,
0001
0000
1000
0100
1000
0000
0000
0000
,
0010
0001
0010
0001
0010
0000
0000
0000
,
1100
0011
0101
1010
,
1001
0110
2002
3003
,
1100
0001
0011
0000
,
1010
1000
0101
0000
,
0002
0000
2003
0000
3002
0000
1003
0001
,
1000
0000
1000
0001
,
1000
0010
1000
0000
0010
0001
0010
0000
,
1000
0001
1000
0001
1000
0000
1000
0100
,
1000
0000
0100
0001
0100
0000
0001
1000
,
0001
1000
0100
0010
0100
0000
1000
1000
,
1000
0000
0001
0001
0001
1000
0100
1000
,
0100
1000
0100
0000
0100
0000
0010
0001
,
0010
0001
0010
0100
1000
0100
1000
0200
,
0000
0000
0000
0000
0000
0300
0000
0000
,
2002
0000
0000
0000
0000
3003
0100
0010
,
0100
0011
1100
0000
,
0200
0300
0010
0000
1000
0000
0000
0000
,
0101
0011
1010
1100
,
0101
0000
0000
0000
0001
1000
0001
0000
,
0000
0000
0000
0000
,
0001
0100
0001
0100
0010
1000
0010
1000
,
0010
0001
0010
0001
0100
1000
0100
0000
,
0100
0010
0100
0010
0001
1000
0001
0001
,
0010
0100
1000
0100
0010
0001
0000
0001
,
0100
0010
1000
0001
0010
0100
1000
0100
,
0010
0001
1000
0100
0001
0010
1000
0000
,
0100
0010
1000
0100
0010
0100
0001
1000
,
0010
0001
0010
0001
2000
0000
3000
0000
,
2001
0100
0001
0100
,
3002
0000
0000
0000
,
0203
0000
0000
0000
0000
0000
0000
0320
,
0000
0000
0000
0000
0000
0030
0000
0000
,
0101
1000
1100
0001
,
0011
1000
1010
0001
,
1000
0001
1000
0001
,
0100
0010
0100
0000
,
1000
0000
0001
0010
0001
0000
0000
0000
,
0100
1000
0100
1000
0100
0000
0000
0000
,
0011
1100
1010
0101
,
0110
1001
0220
0330
,
0011
0001
1100
0000
,
1100
1000
0011
0000
,
0200
0000
0320
0000
0230
0000
0310
0100
,
0010
0000
0100
0010
,
0001
0100
0001
0000
1000
0100
1000
0000
,
0100
0010
0100
0010
0100
0000
1000
0010
,
1000
0000
0010
0001
0010
0000
0010
0100
,
0010
0100
1000
0001
1000
0000
0100
0100
,
0100
0000
0010
0010
0010
0001
0010
0001
,
0010
0001
0010
0000
0010
0000
1000
0100
,
1000
0100
1000
0010
0001
0010
0001
0020
,
0000
0030
0001
1000
,
0001
0010
0001
0000
0010
1000
0010
0000
,
0001
1000
0001
1000
0001
0000
0001
0100
,
0001
0000
0100
1000
0100
0000
1000
0001
,
1000
0001
0010
0100
0010
0000
0001
0001
,
0001
0000
1000
1000
1000
0001
0100
0001
,
0100
0001
0100
0000
0100
0000
0010
1000
,
0010
1000
0010
0001
0010
0001
0010
0200
,
0000
0000
0000
0000
0000
0300
0000
0000
,
2002
0000
0000
0000
0000
3003
0001
1000
,
0002
0000
0000
0000
0000
0000
0000
0003
;

//---------------dance-single - ----------------
#NOTES:
     dance-single:
     :
     Medium:
     6:
     0.367,0.464,0.235,0.266,0.000:
0000
0000
0000
0000
,
0000
0000
0000
0000
,
0000
0000
0000
0000
,
0000
0000
0000
0000
,
0000
0000
0000
0000
,
1000
1000
0001
0001
,
0100
0000
0100
0000
0010
0100
0010
0000
,
0001
0001
1000
1000
,
0010
0010
0100
0200
,
1300
1000
0100
0100
,
0010
0000
0010
0000
0010
0001
0010
0000
,
0100
0100
0010
0010
,
1000
2000
0000
3000
,
1001
0001
0001
0001
,
0001
0000
1000
0000
0001
0000
0000
0200
,
0000
0000
0300
0020
0000
0000
0030
0100
,
0010
0100
0000
0000
0000
0000
1000
0000
,
0001
1000
0001
0100
,
0010
0000
0100
0000
0200
0000
0000
0300
,
0011
0000
1100
0000
,
2002
0000
0000
0000
0000
3003
0000
0000
,
0001
0000
1000
0000
0001
1000
0001
0000
,
1000
0000
0001
0000
1000
0001
1000
0000
,
0200
0320
0230
0320
,
0032
2003
3002
0003
,
1000
1000
1000
0000
,
0001
0001
0001
0000
,
0001
0010
1000
0100
,
0002
0000
0000
0003
0200
0000
0300
0000
,
0110
0000
1001
0000
,
1000
0000
0100
0001
0010
0001
0000
0000
,
1001
0000
0110
0000
,
0001
0000
0100
0010
1000
0010
0000
0000
,
1100
0000
0011
0000
,
0100
0000
0010
0100
1000
0100
0000
0000
,
0101
0000
0000
0000
1010
0000
0000
0001
,
1000
0002
0000
0000
0000
0000
0003
0000
,
2000
0000
0000
3000
,
0110
0001
0001
0000
,
1000
1000
1000
0000
,
0100
0010
0001
0100
,
1000
0000
1000
0000
1000
0100
1000
0000
,
0000
0000
0000
0000
,
0001
0001
1000
1000
,
0010
0000
0010
0000
0100
0010
0100
0000
,
1000
1000
0001
0001
,
0100
0100
0010
0020
,
0031
0001
0010
0010
,
0100
0000
0100
0000
0100
1000
0100
0000
,
0010
0010
0100
0100
,
0001
0002
0000
0003
,
0001
0000
0100
0000
,
1000
0000
0010
0000
,
0001
0000
0001
0000
,
1000
0000
1000
0000
,
0100
0100
0100
0100
,
0010
0010
0010
0010
,
0001
0001
0001
0001
,
1000
1000
1000
1000
,
0100
0000
0010
0000
0100
0010
0100
0000
,
0010
0000
0100
0000
0010
0100
0010
0000
,
2000
3002
2003
3002
,
0203
0320
0230
0300
,
0010
0010
0010
0000
,
0100
0100
0100
0000
,
1000
0010
0001
0100
,
2000
0000
0000
3000
0020
0000
0030
0000
,
1001
0000
0110
0000
,
0001
0000
0010
1000
0100
1000
0000
0000
,
0110
0000
1001
0000
,
1000
0000
0010
0001
0010
0001
0000
0000
,
0101
0000
1010
0000
,
0100
0000
0100
0001
0100
0001
0000
0000
,
1100
0000
0000
0000
0011
0000
0000
1000
,
0001
2000
0000
0000
0000
0000
3000
0000
,
0110
0000
1001
0000
,
1000
0000
0100
0001
0010
0001
0000
0000
,
1001
0000
0110
0000
,
0001
0000
0100
0010
1000
0010
0000
0000
,
1100
0000
0011
0000
,
0100
0000
0010
0100
1000
0100
0000
0000
,
0101
0000
0000
0000
1010
0000
0000
0001
,
1000
0002
0000
0000
0000
0000
0003
0000
,
2000
0000
0000
3000
,
0220
0000
0000
0330
;

//---------------dance-single - ----------------
#NOTES:
     dance-single:
     :
     Easy:
     3:
     0.254,0.298,0.125,0.250,0.000:  // measure 1
0000
0000
0000
0000
,  // measure 2
0000
0000
0000
0000
,  // measure 3
0000
0000
0000
0000
,  // measure 4
0000
0000
0000
0000
,  // measure 5
0000
0000
0000
0000
,  // measure 6
1000
0000
1000
0000
,  // measure 7
0001
0000
0001
0000
,  // measure 8
0100
0000
0100
0000
,  // measure 9
0010
0000
0010
0000
,  // measure 10
0001
0000
1000
0000
,  // measure 11
0100
0000
0010
0000
,  // measure 12
0001
0000
0100
0000
,  // measure 13
1000
0000
0010
0000
,  // measure 14
0001
0100
0001
0100
,  // measure 15
1000
0010
1000
0000
,  // measure 16
0002
0003
2000
3000
,  // measure 17
0200
0300
0000
1000
,  // measure 18
0100
1000
0100
0010
,  // measure 19
0001
0010
0001
0000
,  // measure 20
0100
0010
0100
0010
,  // measure 21
0200
0000
0000
0300
,  // measure 22
1000
0000
1001
0000
,  // measure 23
0001
0000
1001
0000
,  // measure 24
0100
0100
0100
0100
,  // measure 25
0100
0100
0100
0000
,  // measure 26
0100
0000
0110
0000
,  // measure 27
0010
0000
0110
0000
,  // measure 28
0010
0010
0010
0010
,  // measure 29
0020
0000
0030
0000
,  // measure 30
1000
0000
0001
0000
,  // measure 31
0100
0000
0010
0000
,  // measure 32
0001
0000
1000
0000
,  // measure 33
0010
0000
0100
0000
,  // measure 34
0002
0003
2000
3000
,  // measure 35
0100
0100
0100
0000
,  // measure 36
0020
0030
0200
0300
,  // measure 37
2002
0000
0000
3003
,  // measure 38
0020
0000
0000
0030
,  // measure 39
1001
1000
1000
0000
,  // measure 40
0001
0001
0001
0000
,  // measure 41
0200
0300
0020
0030
,  // measure 42
0002
0003
2000
3002
,  // measure 43
0000
0000
0003
0000
,  // measure 44
1000
0000
1000
0000
,  // measure 45
0001
0000
0001
0000
,  // measure 46
0100
0000
0100
0000
,  // measure 47
0010
0000
0010
0000
,  // measure 48
0001
0000
1000
0000
,  // measure 49
0100
0000
0010
0000
,  // measure 50
0001
0000
0100
0000
,  // measure 51
1000
0000
0010
0000
,  // measure 52
2000
0000
0000
0000
,  // measure 53
3002
0000
0000
0000
,  // measure 54
0023
0000
0000
0000
,  // measure 55
0230
0000
0000
0000
,  // measure 56
0301
0001
0001
0001
,  // measure 57
1000
1000
1000
0000
,  // measure 58
0100
0100
0100
0100
,  // measure 59
0010
0010
0010
0000
,  // measure 60
1000
0000
1001
0000
,  // measure 61
0001
0000
1001
0000
,  // measure 62
0100
0100
0100
0100
,  // measure 63
0100
0100
0100
0000
,  // measure 64
0100
0000
0110
0000
,  // measure 65
0010
0000
0110
0000
,  // measure 66
0010
0010
0010
0010
,  // measure 67
0020
0000
0030
0000
,  // measure 68
0100
0000
0110
0000
,  // measure 69
0010
0000
0110
0000
,  // measure 70
0010
0010
0010
0010
,  // measure 71
0010
0010
0010
0000
,  // measure 72
0001
0000
1001
0000
,  // measure 73
1000
0000
1001
0000
,  // measure 74
0100
0100
0100
0100
,  // measure 75
0200
0000
0300
0000
,  // measure 76
0001
0000
1000
0000
,  // measure 77
0010
0000
0100
0000
,  // measure 78
1000
0000
0001
0000
,  // measure 79
0100
0000
0010
0000
,  // measure 80
2000
3000
0002
0003
,  // measure 81
0010
0010
0010
0000
,  // measure 82
0200
0300
0020
0030
,  // measure 83
0220
0000
0000
0330
,  // measure 84
0200
0000
0000
0300
,  // measure 85
2002
0000
0000
3003
;
