#TITLE:Rin toshite Saku Hana no Gotoku (Nadeshiko Rock);
#ARTIST:Nijiiro Litmus;
#FILE:nadeshikorock.mp3;
#BPM:163.000;
#GAP:0;
#SAMPLESTART:36.810;
#SAMPLELENGTH:12.000;
#CDTITLE:timerrabbit.png;
#SINGLE:MANIAC:8:
00000000
00000000
00000000
00000000
00000000
48482626
24248680
46462824
28682404
82642868
24628640
86242846
42420006
B!60404046
20608042
40868028
2!20002064!4
606060B0
20804000
80002000
B!B0000B00
60424000
86868000
10903070
B0A0B!B0B0
10609000
70403000
6!60B!40B!60B6
40004060
48408680
46464042
40262064
64282044
40666424
24202086
86824242!2
00000200
B!B0000B28
20901000
2!22804000
30907010
30006460
00000000
62628484
86862420
28286466
82428606
28468242
86426840
28428264
86864!4040
B!40206020
B!60000000
3!2000000A!8
00000800
30401060
90407060
40604060
20802000
40686000
24242000
90107030
A0B0A!A0A0
90601000
10409000
2!20A!80A!20A2
80002080
62604240
28282048
40868082
82464022
20888686
86808042
42486868!8
00806040
68608480
64646062
60242046
46828066
60444626
26202084
84868682!2
00000200
B!B0000B64
6!60000006
;
#SINGLE:ANOTHER:6:
00000000
00000000
00000000
00000000
00000000
40406060
20208280
60604040
8080202!20
10402020
80808680
20208080
404!400040
B0606060
60406002!2
0028!80082
82000040
60406020
80202!2002
90001000
B!B0000B00
60406460
40604640
2!20A!80A!20A!80
9!60B!40B!6060
40404000
60606000
60804020
6!60062!2020
A000B000
40268600
B000A000
60284800
10009000
20824200
30007006
46!6000060
4!40000040
A0606000
40404000
20806020
40404240
00000000
60604040
80802820
40406060
2020808!80
90608080
20202420
80802020
606!600060
60002000
40008000
60006000
40004000
20202020
80808080
60606060
40404040
20802820
80208280
4!40B!60B!40B!60
3!20A!80A!2020
80808000
20202000
40806020
4!40048!8080
B000A000
60842400
A000B000
40868600
30007000
20262600
10009004
64!4000040
A000B000
40268600
B000A000
60284800
10009000
20824200
30007006
46!6000060
4!40000040
A!A00000A0
;
#SINGLE:BASIC:3:
00000000
00000000
00000000
00000000
00000000
40004000
60006000
20002000
80008000
60004000
20008000
60002000
40008000
60206020
40804000
6!60604!4040
2!20200040
20402080
60806000
20802080
2!20000020
4000B000
6000B000
20202020
20202000
2000A000
8000A000
80808080
8!80008000
40006000
20008000
60004000
80002000
6!60604!4040
20202000
8!80802!2020
B!B00000B0
8!80000080
B0404000
60606000
2!20208!8080
6!60604!40B!60
00006000
40004000
60006000
20002000
80008000
60004000
20008000
60002000
40008000
4!40000000
B!60000000
9!80000000
A!20000000
30606060
40404000
20202020
80808000
4000B000
6000B000
20202020
20202000
2000A000
8000A000
80808080
8!80008000
2000A000
8000A000
80808080
80808000
6000B000
4000B000
20202020
2!20002000
60004000
80002000
40006000
20008000
4!40406!6060
80808000
2!20208!8080
A!A00000A0
2!20000020
B!B00000B0
;
