#TITLE:ZZ;
#SUBTITLE:;
#ARTIST:DJ Amuro;
#TITLETRANSLIT:;
#SUBTITLETRANSLIT:;
#ARTISTTRANSLIT:;
#CREDIT:;
#BANNER:;
#BACKGROUND:;
#LYRICSPATH:;
#CDTITLE:;
#MUSIC:ZZ.ogg;
#OFFSET:-0.460;
#SAMPLESTART:28.650;
#SAMPLELENGTH:12.000;
#SELECTABLE:YES;
#BPMS:0.000=154.000;
#STOPS:;
#BGCHANGES:;

//---------------dance-single - ----------------
#NOTES:
     dance-single:
     :
     Hard:
     14:
     0.740,0.834,0.133,0.089,0.520: // measure 1
0000
0000
0000
0000
,  // measure 2
0000
0000
0000
0000
,  // measure 3
0000
0000
0000
0000
,  // measure 4
0000
0000
0000
0000
,  // measure 5
1000
0000
0000
0100
0000
0000
0010
0000
0010
0000
0001
0000
1000
0000
0100
0000
,  // measure 6
0010
0000
0000
0001
0000
0000
0100
0000
0100
0000
1000
0000
0100
0000
0001
0000
,  // measure 7
0010
0000
0000
0100
0000
0000
0001
0000
0001
0000
0100
0000
1000
0000
0100
0000
,  // measure 8
0010
1000
0010
0100
0001
0100
1000
0010
,  // measure 9
0100
0000
0000
0001
0100
0000
0010
0000
0010
0000
1000
0000
0001
0000
1000
0000
,  // measure 10
0100
0000
0000
0010
0100
0000
1000
0000
1000
0000
0100
0000
0001
0000
0100
0000
,  // measure 11
1000
0000
0000
0100
0001
0000
0100
0000
0100
0000
1000
0000
0010
0000
0001
0000
,  // measure 12
0010
1000
0010
0000
1000
0000
0010
0000
1000
0100
1000
0000
0001
0010
0001
0010
,  // measure 13
0001
0000
0000
1000
0100
0000
0010
0000
0010
0000
0001
0000
0100
0000
0010
0000
,  // measure 14
0001
0000
0000
0010
1000
0000
0100
0000
0100
0000
0010
0000
0100
0000
1000
0000
,  // measure 15
0010
0000
0000
0100
0010
0000
1000
0000
1000
0000
0001
0000
0100
0000
1000
0000
,  // measure 16
0100
0010
0100
0000
0001
0000
0100
0000
0010
0100
0010
0000
1000
0001
1000
0001
,  // measure 17
1000
0000
0100
1000
0000
1000
0100
0000
0001
0000
0100
0000
1000
0000
0010
0000
,  // measure 18
0001
0000
0010
0100
0000
0100
0010
0000
0100
0000
0010
0000
1000
0000
0001
0000
,  // measure 19
1000
0000
0100
0010
0000
0010
0100
0000
1000
0000
0001
0000
0010
0000
0100
0000
,  // measure 20
1000
0100
1000
0000
0010
0000
0100
0000
0001
0100
0001
0000
0010
0100
0010
0100
,  // measure 21
0010
0000
0001
0100
0000
0100
0001
0000
1000
0000
0010
0000
0100
0000
0010
0000
,  // measure 22
1000
0000
0010
0001
0000
0001
0010
0000
1000
0000
0100
0000
0010
0000
0100
0000
,  // measure 23
1000
0000
0010
0100
0000
0100
0010
0000
1000
0000
0100
0000
1000
0000
0001
0000
,  // measure 24
1000
0010
1000
0000
0001
0000
0010
0000
0001
0010
0001
0000
1000
0100
1000
0100
,  // measure 25
1000
0001
1000
0001
1000
0000
0001
0010
0001
0010
0001
0000
1000
0100
0010
0100
,  // measure 26
1000
0000
0000
0000
0001
0010
0001
0010
0001
0000
0000
0000
1000
0100
1000
0000
,  // measure 27
0001
0010
0001
1000
0001
1000
0100
0010
,  // measure 28
0001
0010
0100
0001
0100
1000
0010
0100
,  // measure 29
1000
0100
0001
0010
1000
0010
0100
1000
,  // measure 30
1100
0000
1000
0100
0001
0000
1000
0010
,  // measure 31
0001
0000
0100
0000
1000
0000
0001
0000
0000
0000
1000
0100
1000
0000
0000
0000
,  // measure 32
0001
0010
0001
0100
0001
1000
0001
0100
,  // measure 33
0001
0010
0000
0000
0010
0100
0000
0000
0100
1000
0000
0000
1000
0100
0000
0000
,  // measure 34
1001
0100
0010
1000
0001
0100
1000
0100
,  // measure 35
0001
0010
1000
0010
0100
0001
0100
1000
,  // measure 36
0010
0100
0001
0100
1000
0001
0010
1000
,  // measure 37
0001
0100
0010
1000
0001
0010
0001
1000
,  // measure 38
0001
0100
0010
1000
0100
1000
0001
1000
,  // measure 39
0010
0100
0001
1000
0100
0010
0001
1000
,  // measure 40
0001
0010
0000
0000
0010
0001
0000
0000
0001
0100
0000
0000
0001
0000
1000
0000
,  // measure 41
0010
0100
0010
0100
0010
0000
1000
0001
1000
0001
1000
0000
0210
0000
0000
0000
,  // measure 42
0301
0000
0000
0010
0100
0000
0001
0000
0100
0000
1000
0000
0010
0000
0001
0000
,  // measure 43
0010
0000
0000
0010
0100
0000
0001
0000
1000
0000
0100
0000
0010
0000
1000
0000
,  // measure 44
0001
0000
0000
1000
0010
0000
0001
0000
0100
0000
1000
0000
0100
0000
0001
0000
,  // measure 45
1000
0100
1000
0000
0001
0010
0001
0000
1000
0100
1000
0000
0001
1000
0001
1000
,  // measure 46
0001
0000
0000
1000
0001
0000
0010
0000
0100
0000
0001
0000
0100
0000
1000
0000
,  // measure 47
0010
0000
0000
0100
0001
0000
0010
0000
1000
0000
0010
0000
0001
0000
0100
0000
,  // measure 48
1000
0000
0000
0100
0001
0000
0010
0000
0001
0000
1000
0000
0010
0000
0100
0000
,  // measure 49
0001
0010
0001
0000
0100
0010
0100
0000
0001
1000
0001
0000
0010
0001
0010
0001
,  // measure 50
0010
0000
0010
0100
0000
0100
0010
0000
0001
0000
1000
0000
0100
0000
0001
0000
,  // measure 51
0100
0000
0010
1000
0000
1000
0010
0000
0001
0000
0100
0000
0110
0000
1001
0000
,  // measure 52
0001
0000
1000
0001
0000
0001
1000
0000
0100
0000
0010
0000
1100
0000
0101
0000
,  // measure 53
0100
0010
0100
0000
0001
1000
0001
0000
0010
0001
0010
0000
0100
1000
0100
1000
,  // measure 54
0100
0000
1000
0001
0000
0001
0100
0000
0010
0000
1000
0000
1010
0000
0101
0000
,  // measure 55
0010
0000
0100
1000
0000
1000
0001
0000
0010
0000
0100
0000
1001
0000
0110
0000
,  // measure 56
0001
0000
0100
0001
0000
0001
1000
0000
0100
0000
0010
0000
0101
0000
0110
0000
,  // measure 57
1000
0100
1000
0000
0001
0010
0001
0000
0100
1000
0100
0000
0001
0010
0001
1000
,  // measure 58
0002
0000
1000
2003
0100
0000
3020
0000
,  // measure 59
0230
0010
0302
1000
,  // measure 60
2003
0000
0100
3200
0001
0000
0310
0000
,  // measure 61
0110
0000
0000
0010
0001
0000
0000
0100
1000
0000
0100
0000
0100
0000
0001
0100
,  // measure 62
0010
0000
1000
0100
0000
0010
0100
0000
1000
0000
0100
0000
0010
0000
0100
0000
,  // measure 63
1000
0000
0100
0010
0000
0100
0010
0000
0001
0000
1000
0000
0010
0000
0100
0000
,  // measure 64
0010
0000
0100
0001
0000
0010
0100
0000
1000
0000
0010
0000
0100
0000
0001
0000
,  // measure 65
1000
0100
1000
0000
0010
0100
0010
0000
1000
0100
1000
0000
0001
0010
0001
0010
,  // measure 66
0001
1000
0100
0010
0001
0000
1000
0010
0100
0010
1000
0000
0100
0010
0001
0010
,  // measure 67
0100
0000
0100
0010
0001
0000
2002
0000
0000
0000
0000
0000
0000
0000
0000
0000
,  // measure 68
3003
0000
0000
0000
;
