#TITLE:Why Did You Go Away;
#SUBTITLE:;
#ARTIST:Jun feat. Tahirih;
#TITLETRANSLIT:;
#SUBTITLETRANSLIT:;
#ARTISTTRANSLIT:;
#CREDIT:;
#BANNER:;
#BACKGROUND:;
#LYRICSPATH:;
#CDTITLE:;
#MUSIC:23.jun with TAHIRIH - Why did you go away.ogg;
#OFFSET:0.680;
#SAMPLESTART:48.870;
#SAMPLELENGTH:12.000;
#SELECTABLE:YES;
#BPMS:0.000=160.000;
#STOPS:;
#BGCHANGES:;

//---------------dance-single - ----------------
#NOTES:
     dance-single:
     :
     Hard:
     12:
     0.669,0.686,0.475,0.246,0.187: // measure 1
0000
0000
0000
0000
,  // measure 2
1000
0010
1000
0001
0000
0001
0000
0010
,  // measure 3
0000
0000
0001
0100
0000
0010
0100
0001
,  // measure 4
0100
0000
0010
1000
0000
1100
0000
0011
,  // measure 5
0000
0101
0000
1010
0000
0100
0010
1000
,  // measure 6
1001
0000
1000
0100
0000
0010
0200
0301
,  // measure 7
0200
1300
0200
0310
0200
1300
0200
0301
,  // measure 8
0200
0300
0010
0001
0100
1000
0001
0010
,  // measure 9
0000
1100
0000
0011
0000
1000
0100
0010
,  // measure 10
0001
0000
1000
0000
0010
0000
0100
0010
0000
0010
0100
0000
1000
0000
0100
0000
,  // measure 11
0010
0100
0000
0001
0010
0000
0100
0010
0000
0001
1000
0000
0010
0000
0100
0000
,  // measure 12
0010
0000
1000
0000
0100
0000
1000
0010
0000
0010
1000
0000
0100
0000
1000
0000
,  // measure 13
0001
0100
0000
0001
1000
0000
0001
0010
0000
0100
0010
0000
0001
0000
0100
0000
,  // measure 14
0001
0000
0010
0000
0100
0000
1000
0010
0000
0010
1000
0000
0001
0000
0010
0000
,  // measure 15
0100
0010
0000
0001
0010
0000
0100
0010
0000
0100
1000
0000
0010
0000
1000
0000
,  // measure 16
0010
0000
0100
0000
0001
0000
1000
0100
0000
0100
1000
0000
0010
0000
0100
0000
,  // measure 17
2002
0000
0000
3003
0000
0220
0330
0000
,  // measure 18
0100
0001
0010
0100
0000
1000
0000
1001
,  // measure 19
0000
1000
0010
0100
0000
0220
0000
0330
,  // measure 20
0010
0100
0001
0010
0000
0010
0000
0110
,  // measure 21
0000
0100
0001
0100
0000
2200
0000
3300
,  // measure 22
0010
0100
0001
1000
0000
0010
0000
1100
,  // measure 23
0000
1000
0001
0010
0000
0010
0100
0010
,  // measure 24
1001
0000
0000
0110
0000
0000
1010
0000
,  // measure 25
0011
0000
1000
0000
0001
0100
0010
1000
,  // measure 26
0002
0000
0000
0003
0010
0001
1000
0010
,  // measure 27
0000
0100
0000
0100
0000
0010
1000
0010
,  // measure 28
0001
0010
1000
0100
0001
0100
1000
0001
,  // measure 29
0000
0100
0000
0010
0000
1000
0001
0010
,  // measure 30
1000
0010
0001
0100
1000
0100
0001
0010
,  // measure 31
0001
1000
0001
0100
0010
1000
0001
0010
,  // measure 32
0200
0300
2000
3000
,  // measure 33
0101
0000
0000
0110
0000
0000
0011
0000
0000
0000
1001
0000
0000
0000
0000
0000
,  // measure 34
1000
0001
0100
0010
0000
1001
0000
0110
,  // measure 35
0000
0001
0010
1001
0000
0010
0100
1000
,  // measure 36
0001
0000
0100
0010
0000
1000
0000
0011
,  // measure 37
0000
1100
0000
0011
0000
1000
0100
0010
,  // measure 38
0100
0000
1000
0001
0000
0010
0000
0110
,  // measure 39
0000
1000
1001
0000
0100
0010
1000
0001
,  // measure 40
0000
0000
1001
0000
0100
0010
1000
0001
,  // measure 41
0000
0010
0000
0200
0000
1300
0001
0100
,  // measure 42
0010
0000
0010
0100
0000
0001
1000
0010
,  // measure 43
0100
0000
0001
0010
0000
0010
0001
1000
,  // measure 44
0001
0000
1000
0001
0110
0000
0110
0000
,  // measure 45
1000
0100
0001
0100
0000
1000
0010
0001
,  // measure 46
0010
2000
3000
0020
,  // measure 47
0230
0000
0000
0000
0302
0000
0000
0000
1003
0000
0000
0001
0000
0000
0100
0000
,  // measure 48
0010
0000
0010
0100
1001
0000
0110
0000
,  // measure 49
2002
0000
3003
0100
0220
0000
0330
0000
,  // measure 50
0011
0000
1000
0000
0100
0000
0010
0100
0000
0100
0010
0000
0001
0000
0010
0000
,  // measure 51
0001
0010
0000
0010
1000
0000
1000
0010
0000
0010
0001
0000
0100
0000
0001
0000
,  // measure 52
0010
0000
0100
0000
0010
0000
0001
0010
0000
0010
0001
0000
1000
0000
0010
0000
,  // measure 53
1000
0100
0000
1000
0010
0000
1000
0001
0000
1000
0100
0000
0010
0000
0001
0000
,  // measure 54
0010
0000
0100
0000
1000
0000
0001
0100
0000
0100
0001
0000
0010
0000
0100
0000
,  // measure 55
1000
0100
0000
0010
0001
0000
0100
1000
0000
0100
0001
0000
1000
0000
0100
0000
,  // measure 56
0010
0000
0100
0000
0001
0000
0100
0010
0000
0010
0100
0000
1000
0000
0010
0000
,  // measure 57
1001
0000
0000
0000
0000
0220
0000
0330
,  // measure 58
0010
0100
0010
1000
0000
0010
0000
1000
,  // measure 59
0100
0001
0100
1000
0010
0001
0010
0000
,  // measure 60
1000
0010
0100
0001
0000
0110
0000
1001
,  // measure 61
0000
0110
0000
1100
0000
1000
0001
0010
,  // measure 62
0100
0000
0010
0001
0000
1000
0000
1010
,  // measure 63
0000
1001
0000
0101
0000
0010
0001
0100
,  // measure 64
0010
0000
1000
0001
0000
0110
0000
0110
,  // measure 65
0000
0100
1001
0000
0100
0010
1000
0001
,  // measure 66
0000
0000
0010
0000
0100
1000
0001
0100
,  // measure 67
0000
0110
0000
1001
0000
0100
0100
1000
,  // measure 68
0001
0000
0010
0100
0000
0001
0001
0100
,  // measure 69
0010
0000
0001
0010
0000
0001
1000
0100
,  // measure 70
0010
0000
0110
0000
1000
0001
0010
0100
,  // measure 71
0000
0110
0000
1001
0000
1000
0001
0100
,  // measure 72
0010
0000
0100
0001
0000
1000
0001
0010
,  // measure 73
0100
0000
1000
0000
1000
0100
0001
0100
,  // measure 74
0010
0001
0010
1000
0010
0001
0010
0100
,  // measure 75
0110
0000
0100
1000
0001
0010
0100
0000
,  // measure 76
0100
0000
0010
0000
0001
0000
0100
0000
0000
0000
1000
0000
0100
0001
0100
0000
,  // measure 77
0000
0000
0010
1000
0020
0000
0000
0000
0000
0000
0000
0000
0000
0000
0000
0000
,  // measure 78
0030
0000
0000
0000
;
