#TITLE:Wenkamui;
#SUBTITLE:;
#ARTIST:Zektbach;
#TITLETRANSLIT:;
#SUBTITLETRANSLIT:;
#ARTISTTRANSLIT:;
#CREDIT:;
#BANNER:;
#BACKGROUND:;
#LYRICSPATH:;
#CDTITLE:;
#MUSIC:18.Wenkamui.ogg;
#OFFSET:0.040;
#SAMPLESTART:64.470;
#SAMPLELENGTH:12.000;
#SELECTABLE:YES;
#BPMS:0.000=134.960;
#STOPS:;
#BGCHANGES:;

//---------------dance-single - ----------------
#NOTES:
     dance-single:
     :
     Hard:
     11:
     0.586,0.596,0.355,0.138,0.059: // measure 1
0000
0000
0000
0000
,  // measure 2
0000
0000
0000
0000
,  // measure 3
0000
0000
0000
0000
,  // measure 4
0000
0000
0000
0000
,  // measure 5
0000
0000
0010
0100
0001
0100
0010
0100
,  // measure 6
0001
0000
1000
0001
0100
0010
1000
0001
,  // measure 7
1000
0000
1000
0001
0010
0100
1000
0001
,  // measure 8
0100
0000
0100
0010
1000
0001
0010
0100
,  // measure 9
1000
0100
0010
0100
0001
1000
0010
0100
,  // measure 10
1001
0100
0010
1001
0001
0010
0001
0100
,  // measure 11
0101
0001
0010
1001
0001
0010
0001
1000
,  // measure 12
1010
0010
0100
0010
1001
1000
0001
0010
,  // measure 13
0110
1000
0001
0010
0100
1000
0001
0100
,  // measure 14
0110
1000
0010
0001
0010
1000
0001
0100
,  // measure 15
0110
0001
0100
1000
0100
0001
0010
0100
,  // measure 16
0110
0001
0100
0010
0100
0001
1000
0100
,  // measure 17
1001
0000
0110
0000
0000
0010
0100
0000
0100
0001
2000
0001
0000
0000
0001
0000
,  // measure 18
0000
0000
0010
0000
0000
0000
0001
0000
3001
0000
0010
0000
0000
0001
0010
0000
,  // measure 19
0100
0020
0000
0001
0001
0001
0000
0100
,  // measure 20
0130
0000
0001
0000
0000
0000
0001
0000
0100
0000
1000
0000
0010
0000
0100
0001
,  // measure 21
1000
0001
0020
0000
0000
0000
0130
0000
1000
0000
0010
0000
0100
0000
1000
0000
,  // measure 22
0100
0001
0000
0010
0001
0100
0000
1000
,  // measure 23
0100
0001
0000
0100
0010
1000
0001
0010
,  // measure 24
0100
0000
0001
0000
0100
0000
1000
0000
0010
0000
0100
0000
0001
0000
0100
0010
,  // measure 25
1000
0010
0200
0000
0000
0000
1300
0000
0100
0000
1000
0000
0000
0000
1000
0000
,  // measure 26
0100
0202
0000
0303
0000
0101
0000
0011
,  // measure 27
0000
2001
0000
3001
0100
0010
0000
0001
,  // measure 28
0010
0000
1000
0000
0000
1000
0000
0000
0001
0000
0010
0000
0000
0001
0000
0000
,  // measure 29
0100
0020
0000
0130
0001
0010
0000
0000
,  // measure 30
0000
1001
0000
0100
0010
0001
0000
1100
,  // measure 31
0000
0110
0000
0001
0010
0001
0000
1000
,  // measure 32
0100
0000
0010
0000
0000
0001
0000
0000
0001
0000
1000
0000
0000
1000
0000
0000
,  // measure 33
0010
0100
0001
1000
0001
0010
0100
1000
,  // measure 34
1001
0001
0100
0101
0100
0110
0010
1010
,  // measure 35
1000
0001
0100
1000
0100
0001
0010
1100
,  // measure 36
0100
1002
0000
0103
0010
1001
2000
0010
,  // measure 37
0010
3010
1000
0001
0010
0100
0010
0001
,  // measure 38
1001
0100
0010
0110
0100
0101
0001
1001
,  // measure 39
0001
0100
0010
0100
0001
1000
0100
0010
,  // measure 40
0110
1000
0001
0010
0200
0000
1300
0010
,  // measure 41
0010
1000
0001
0010
0001
1000
0010
1000
,  // measure 42
1010
0100
0001
0010
0100
0010
0001
1000
,  // measure 43
1010
0010
0010
0100
0001
0010
0100
0010
,  // measure 44
0100
1002
0000
0013
0001
1000
0001
0100
,  // measure 45
0100
1000
0100
0010
0100
1000
0100
0001
,  // measure 46
0101
1000
0100
0001
0100
1000
0010
0100
,  // measure 47
0101
0001
0010
0001
1000
0010
0100
0001
,  // measure 48
0001
1000
1000
0010
0200
0000
0310
0010
,  // measure 49
0001
0010
1000
1000
0100
0001
0100
0100
,  // measure 50
1000
0001
0100
0100
0010
1000
0100
0100
,  // measure 51
0001
1000
0001
0001
0100
1000
0010
0010
,  // measure 52
1000
0010
0100
0100
0001
0100
0010
0010
,  // measure 53
0001
1000
0100
0100
0001
1000
0001
0010
,  // measure 54
0100
0001
1000
0010
0100
1000
0001
1000
,  // measure 55
0200
0000
0000
0000
,  // measure 56
0300
0000
0000
0000
;
