#TITLE:Umeyukiyo;
#SUBTITLE:;
#ARTIST:Qrispy Joybox feat. Mao;
#TITLETRANSLIT:;
#SUBTITLETRANSLIT:;
#ARTISTTRANSLIT:;
#CREDIT:;
#BANNER:;
#BACKGROUND:;
#LYRICSPATH:;
#CDTITLE:;
#MUSIC:Ume Yukiyo.ogg;
#OFFSET:0.700;
#SAMPLESTART:46.050;
#SAMPLELENGTH:12.000;
#SELECTABLE:YES;
#BPMS:0.000=167.020;
#STOPS:;
#BGCHANGES:;

//---------------dance-single - ----------------
#NOTES:
     dance-single:
     :
     Hard:
     14:
     0.789,0.868,0.339,0.247,0.444: // measure 1
0000
0000
0000
0000
,  // measure 2
1001
0000
1001
0000
0000
0000
0000
0000
0002
0000
0000
0000
0000
0000
1003
0010
,  // measure 3
1000
0010
1000
0001
0100
0010
0010
0000
,  // measure 4
1001
0000
1001
0000
0000
0000
0000
0000
2000
0000
0000
0000
0000
0000
3001
0010
,  // measure 5
0001
0100
0010
1000
0001
0010
0010
0000
,  // measure 6
1100
0000
1100
0000
0000
0000
0000
0000
0020
0000
0000
0000
0000
0000
0130
1000
,  // measure 7
0100
0001
0100
1000
0010
0100
0001
0000
,  // measure 8
1100
0110
0101
0110
,  // measure 9
1010
0110
0011
0000
,  // measure 10
0001
0000
1000
0010
1000
0000
0001
0000
0000
0000
1000
0000
0100
0000
0010
0000
,  // measure 11
0100
1000
0001
0001
0010
0000
0001
0010
,  // measure 12
0001
0000
1000
0100
1000
0000
0001
0000
0000
0000
0100
0000
0010
0000
1000
0000
,  // measure 13
0001
0010
0100
1000
0001
0000
0001
0100
,  // measure 14
0010
0000
0100
0010
0100
0000
0010
0000
0000
0000
0100
0000
1000
0000
0100
0000
,  // measure 15
0001
0010
0100
0010
0001
0000
0001
0000
,  // measure 16
1010
1001
0101
0110
,  // measure 17
1100
1001
0011
0110
,  // measure 18
1000
0000
0100
0010
0100
0000
0001
0000
0100
0000
1000
0000
0010
0000
0100
0000
,  // measure 19
0001
1000
0100
0010
0100
0000
1000
0000
,  // measure 20
0001
0000
1000
0010
1000
0000
0001
0000
0100
0000
0001
0000
0100
0000
1000
0000
,  // measure 21
0100
0001
1000
0100
0020
0000
1030
0000
,  // measure 22
0010
0000
0100
0001
0100
0000
1000
0000
0010
0000
0100
0000
0001
0000
1000
0000
,  // measure 23
0010
0100
1000
0100
0010
0000
1000
0100
,  // measure 24
0110
1100
0110
0011
,  // measure 25
0110
0000
0101
0000
0220
0000
0000
0330
,  // measure 26
0000
0001
0010
0100
1000
0100
0010
0001
,  // measure 27
0100
0010
1000
0010
0100
0001
1000
0000
,  // measure 28
1000
0010
0100
0001
0010
0100
1000
0100
,  // measure 29
0010
0001
0010
0100
1000
0000
0000
0000
,  // measure 30
0010
0100
0010
0001
0010
1000
0010
0100
,  // measure 31
0010
0100
0001
0100
1000
0100
0010
0000
,  // measure 32
1000
0100
0010
0001
0010
0100
1000
0010
0100
0001
0100
0010
,  // measure 33
1000
0010
0100
0010
1000
0100
0010
0000
0000
1001
0000
0000
,  // measure 34
0210
0000
0310
0000
1000
0001
1000
0001
,  // measure 35
1000
0000
0010
0000
0010
0000
0010
0000
0010
0000
0000
1000
0001
0000
0000
0000
,  // measure 36
0002
2003
3020
2030
,  // measure 37
3001
0010
0001
1000
0100
1000
0001
0100
0001
1000
0010
1000
,  // measure 38
0002
0000
0010
0003
0200
0000
0302
0000
,  // measure 39
2003
3002
0023
2030
,  // measure 40
3010
0001
0100
0000
1001
0000
0110
0000
,  // measure 41
1001
0000
0000
1100
0000
0000
0001
0010
0100
0010
0001
1000
,  // measure 42
0001
1000
0100
1000
0000
0001
1000
0010
,  // measure 43
0100
0010
0100
0000
0001
0000
1000
0000
0010
0000
0100
0000
0100
0000
0100
0000
,  // measure 44
0001
0000
0010
0001
0010
0000
0001
0000
1000
0000
0010
0000
0100
0000
0001
0000
,  // measure 45
1000
0100
1000
0000
0010
0000
0100
0000
0010
0000
1000
0000
1000
0000
1000
0000
,  // measure 46
0001
0000
0010
0100
0010
0000
0001
0000
1000
0000
0100
0000
0010
0000
0100
0000
,  // measure 47
1000
0100
1000
0000
0001
0000
0010
0000
1000
0000
0010
0000
0010
0000
0010
0000
,  // measure 48
0001
1000
0001
1000
0001
0010
0100
1000
0010
0100
0001
0010
,  // measure 49
0001
1000
0100
0010
0100
1000
0002
0000
0000
2003
0000
0000
,  // measure 50
3002
0000
0100
0000
1003
0100
0001
0100
,  // measure 51
1000
0000
0010
0100
0010
0000
0100
0000
2000
0000
0000
0000
3200
0000
0000
0000
,  // measure 52
0302
0023
2030
3010
,  // measure 53
0100
0010
0100
1000
0100
0001
0100
0010
0100
0010
1000
0010
,  // measure 54
0001
0000
1000
0010
1000
0000
0001
0000
0010
0000
0001
0000
0001
0000
1000
0000
,  // measure 55
0001
0000
0010
0100
0010
0000
0001
0000
1000
0000
0010
0000
0100
0000
0100
0000
,  // measure 56
0001
0000
0100
0010
0100
0000
0001
0000
0001
0000
0100
0010
0100
0000
0001
0000
,  // measure 57
1000
0000
0010
0000
0100
0000
0001
0000
1000
0000
0010
0100
0001
0000
1000
0000
,  // measure 58
0001
0010
0001
0000
1000
0100
1000
0000
0001
0100
0001
0000
1000
0010
1000
0000
,  // measure 59
0001
0000
0100
0010
1000
0000
0001
0000
0100
0000
0010
0000
0010
0000
0010
0000
,  // measure 60
1000
0001
1000
0000
0001
1000
0001
0000
1000
0001
1000
0000
0001
1000
0001
0000
,  // measure 61
0100
0000
0001
1000
0010
0000
0100
0000
0010
0000
1000
0000
1000
0000
1000
0000
,  // measure 62
0100
0001
0100
0000
0010
1000
0010
0000
0100
1000
0100
0000
0010
0001
0010
0000
,  // measure 63
1000
0001
1000
0000
0010
0001
0010
0000
1000
0001
1000
0000
0100
1000
0100
0000
,  // measure 64
1001
0000
0001
0100
0010
0000
0010
0100
0001
0000
0001
1000
0100
0000
0100
1000
,  // measure 65
0001
0100
0010
0100
0001
0010
0100
0010
0001
1000
0100
0001
,  // measure 66
0100
1000
0010
0200
0000
0000
0000
0000
0000
0000
0000
0000
,  // measure 67
0000
0000
0000
0000
,  // measure 68
0000
0301
0100
1000
0100
0001
1000
0001
,  // measure 69
1000
0100
0001
0100
1000
0001
1000
0001
,  // measure 70
0101
0001
0010
0001
1000
0001
1000
0010
,  // measure 71
0001
0010
1000
0001
1000
0001
0100
0010
,  // measure 72
0100
0010
0100
0001
1000
0010
0100
0001
,  // measure 73
0100
0010
1000
0010
1000
0001
0010
1001
;
