#TITLE:Twinkling;
#SUBTITLE:;
#ARTIST:Nekomata Master;
#TITLETRANSLIT:;
#SUBTITLETRANSLIT:;
#ARTISTTRANSLIT:;
#CREDIT:;
#BANNER:;
#BACKGROUND:;
#LYRICSPATH:;
#CDTITLE:;
#MUSIC:2-01_TWINKLING.ogg;
#OFFSET:0.160;
#SAMPLESTART:79.870;
#SAMPLELENGTH:12.000;
#SELECTABLE:YES;
#BPMS:0.000=151.960;
#STOPS:;
#BGCHANGES:;

//---------------dance-single - ----------------
#NOTES:
     dance-single:
     :
     Hard:
     12:
     0.553,0.584,0.289,0.190,0.045: // measure 1
0000
0000
0000
0000
,  // measure 2
0000
0000
0000
0000
,  // measure 3
0000
0000
0000
0000
,  // measure 4
0000
0000
0000
0000
,  // measure 5
1000
0100
1000
0010
,  // measure 6
0000
0000
1000
0001
0000
0000
0010
0000
,  // measure 7
0000
0001
0000
0100
,  // measure 8
0010
0000
0001
0010
0000
0000
1000
0000
,  // measure 9
0001
0000
0210
0000
0000
0300
0001
1000
,  // measure 10
0010
0001
0010
1000
0001
0100
0000
0100
,  // measure 11
0001
0000
0010
0000
0001
0000
1000
0100
1000
0000
0100
0000
0000
0000
0100
0000
,  // measure 12
1000
0001
0100
0010
0001
0010
1000
0100
,  // measure 13
1000
0001
0100
1000
0100
0001
0000
0001
,  // measure 14
1000
0001
0010
0100
0010
0001
0000
0001
,  // measure 15
1000
0100
0010
0100
1000
0010
0100
0000
,  // measure 16
0100
0000
0001
0000
1000
0000
0001
0010
0001
0000
1000
0000
0100
0000
0010
0100
,  // measure 17
0010
0000
0001
0010
0001
0000
0100
0000
0010
0000
0100
0000
0001
0000
0010
0000
,  // measure 18
0001
0000
1000
0000
0010
0000
0100
0001
0100
0000
0001
0000
0100
0000
0010
0000
,  // measure 19
1000
0001
0100
0110
0010
1000
0000
1000
,  // measure 20
0010
0010
0000
0100
0001
0001
0000
0010
,  // measure 21
0100
0100
0000
1000
0001
0001
0000
0100
,  // measure 22
0010
0010
0000
1000
0100
0100
0000
1000
,  // measure 23
0001
0100
0010
1000
0001
0010
0100
0000
,  // measure 24
0002
0003
0200
0000
0000
0300
0000
1000
,  // measure 25
0001
0000
0010
0000
0100
0000
0000
0000
2020
0000
0000
0000
3030
0000
0100
0010
,  // measure 26
0100
0000
0010
0100
0010
0000
0100
0000
0002
0000
0000
0000
0000
0000
1003
0000
,  // measure 27
0100
0001
0100
1000
1100
0100
0110
0000
,  // measure 28
1001
0000
0100
0010
1000
0000
0000
0000
,  // measure 29
0001
0010
0100
1000
0001
0000
0000
0000
,  // measure 30
1000
0000
0001
1000
0010
0000
0000
1000
,  // measure 31
0001
0100
1000
0100
0001
1000
0001
0000
,  // measure 32
0010
0001
0100
0010
1000
0000
0000
0000
,  // measure 33
0010
0100
0010
1000
0001
0000
0000
0000
,  // measure 34
0110
0000
0010
0001
0010
1000
0001
0000
,  // measure 35
0011
1100
0101
1010
,  // measure 36
0100
0010
1000
0001
1000
0000
0010
0100
,  // measure 37
0001
0000
0010
0000
0001
0000
1000
0010
1000
0000
0010
0000
0200
0000
0000
0000
,  // measure 38
0001
0000
1000
0000
0301
1000
0100
0010
,  // measure 39
0100
0000
0100
0000
0100
1000
0001
0000
,  // measure 40
1001
0000
0010
0001
1000
0000
0100
0001
,  // measure 41
0100
1000
0010
0000
1000
0100
0001
0100
,  // measure 42
1000
0000
0101
0000
1000
0010
1010
0000
,  // measure 43
0110
0000
1001
0100
0001
1000
0010
0100
,  // measure 44
1001
0000
0100
0001
0010
0000
0100
1000
,  // measure 45
0001
0000
0100
0000
0010
0000
0100
0001
0100
0000
0010
0000
2000
0000
0000
0000
,  // measure 46
0001
0000
3010
0000
1000
0001
0100
0010
,  // measure 47
1001
0000
1001
0000
0001
0100
0010
0000
,  // measure 48
0110
0000
0100
0001
0010
0000
0001
1000
,  // measure 49
0010
0101
0000
0010
0220
0000
0000
0000
,  // measure 50
0000
0000
0000
0000
,  // measure 51
0330
0001
0001
1000
1000
0000
2010
0000
,  // measure 52
0100
0000
3001
0000
0010
0100
0000
0100
,  // measure 53
0010
0100
0000
0100
0010
0000
2100
0000
,  // measure 54
0001
0000
0010
0000
3001
0010
0000
0010
,  // measure 55
0100
0010
0000
0010
0001
0000
0102
0000
,  // measure 56
1000
0000
0013
0000
0001
0100
0000
0100
,  // measure 57
0010
0100
0000
0100
0001
0000
0110
0000
,  // measure 58
1001
0000
0110
0000
0001
0010
1000
0010
,  // measure 59
0001
0000
1000
0000
0010
0100
1002
0000
,  // measure 60
0010
0000
0103
0000
1000
0010
0000
0010
,  // measure 61
0100
0010
0000
0010
1000
0000
0120
0000
,  // measure 62
0001
0000
0130
0000
1000
0001
0000
0001
,  // measure 63
1000
0001
0000
0001
1000
0000
0210
0000
,  // measure 64
1000
0000
0001
0000
0310
1000
0000
0010
,  // measure 65
0100
0010
0000
0010
0001
0000
1001
0000
,  // measure 66
0110
0000
0101
0000
1000
0001
0100
0010
,  // measure 67
1000
0001
1000
0010
0010
0000
0001
0100
,  // measure 68
0001
0100
0010
1000
0010
0100
0001
0010
,  // measure 69
0001
0010
0100
0001
0100
1000
0010
0100
,  // measure 70
0010
1000
0100
0001
0100
1000
0010
0001
,  // measure 71
0010
0000
1000
0100
1000
0000
0001
0100
0001
0000
0010
0000
0200
0000
0000
0000
,  // measure 72
0310
0000
0002
1000
1000
0000
0023
0000
,  // measure 73
0100
0000
0032
0010
0010
0000
0203
0000
,  // measure 74
0001
0000
0320
1000
1000
0000
0230
0000
,  // measure 75
0000
0001
0301
0000
0011
0000
0000
0000
;
