#TITLE:Tsuki Michinu;
#SUBTITLE:;
#ARTIST:Cultvoice by S.S.D Products;
#TITLETRANSLIT:;
#SUBTITLETRANSLIT:;
#ARTISTTRANSLIT:;
#CREDIT:;
#BANNER:;
#BACKGROUND:;
#LYRICSPATH:;
#CDTITLE:;
#MUSIC:05.CULTVOICE by S.S.D.PRODUCTS -Tsuki Michinu.ogg;
#OFFSET:-0.180;
#SAMPLESTART:62.110;
#SAMPLELENGTH:12.000;
#SELECTABLE:YES;
#BPMS:0.000=146.000;
#STOPS:229.000=0.400
;
#BGCHANGES:;

//---------------dance-single - ----------------
#NOTES:
     dance-single:
     :
     Hard:
     12:
     0.649,0.642,0.430,0.143,0.411: // measure 1
0000
0000
0000
0000
,  // measure 2
0000
0000
0000
0000
,  // measure 3
0000
0000
0000
0000
,  // measure 4
0000
0000
0000
0000
,  // measure 5
1000
0000
0100
0000
0010
0000
0000
0100
0010
0000
0000
0010
0100
0000
1000
0001
,  // measure 6
0100
0000
0000
0100
0010
0000
0000
0010
1000
0000
0001
0000
1000
0000
0000
0000
,  // measure 7
1000
0000
0100
0000
0010
0000
0000
0000
0010
0000
0000
0000
0001
0000
1000
0100
,  // measure 8
1000
0001
0200
0000
0010
0000
0000
0010
,  // measure 9
0310
0000
0000
0000
1001
0000
0000
0100
0010
0000
0001
0000
0010
0000
0000
0100
,  // measure 10
1000
0000
0010
0000
0100
0000
0000
0001
0010
0000
0100
0000
0010
0000
0001
0000
,  // measure 11
1000
0000
0000
0000
0110
0000
0000
1000
0100
0000
0010
0000
0100
0000
0000
0100
,  // measure 12
0010
0000
0001
0000
0010
0000
0000
0100
0010
0000
0001
0000
0010
0000
0001
1000
,  // measure 13
0001
0000
0010
0000
0110
0000
0000
1000
0001
0000
0010
0000
0100
0000
0000
0010
,  // measure 14
0100
0000
1000
0000
0100
0000
0000
0010
0001
0000
0100
0000
0010
0000
0000
0000
,  // measure 15
1000
0001
0010
0000
0110
0000
1001
0000
,  // measure 16
1100
0012
0100
0010
,  // measure 17
0003
0000
0000
0000
1100
0000
0000
0001
0010
0000
0001
0000
1000
0000
0000
1000
,  // measure 18
0001
0000
0010
0000
0001
0000
1000
0100
1000
0000
0010
0100
0010
0000
1000
0000
,  // measure 19
0010
0000
0100
0000
1001
0000
0000
0001
0100
0000
0010
0000
0001
0000
0000
0010
,  // measure 20
0100
0000
0010
0000
1000
0000
0000
0001
1000
0000
0010
0000
0100
0000
0001
0100
,  // measure 21
0001
0000
0100
0000
1001
0000
0000
0100
0010
0000
0001
0000
1000
0000
0000
0010
,  // measure 22
0100
0000
0001
0000
1000
0000
0000
1000
0100
0000
0001
0000
0100
0000
0010
0000
,  // measure 23
0100
1001
0110
1100
,  // measure 24
0011
0000
0000
0000
1001
0000
0010
0100
0010
0000
0100
0000
0002
0000
0000
0000
,  // measure 25
0000
0000
0000
0000
0003
0000
0000
0001
0010
0000
0010
0000
1000
0000
0000
0010
,  // measure 26
0001
0000
0001
0000
1000
0000
0000
0010
0100
0000
0001
0000
0010
0000
0001
0000
,  // measure 27
1000
0000
0000
0000
0000
0000
0000
0100
0010
0000
0001
0000
0100
0000
0000
0010
,  // measure 28
0100
0000
0001
0000
1000
0000
0000
1000
0001
0000
0010
0000
0200
0000
1000
0000
,  // measure 29
1000
0000
1300
0000
0001
0000
0000
1000
0010
0000
0100
0000
0001
0000
1001
0000
,  // measure 30
1100
0000
0001
0000
0010
0000
0000
0100
0010
0000
0001
0000
1000
0000
0011
0000
,  // measure 31
1001
0000
0000
0000
0000
0000
0000
0010
1000
0000
0001
0000
0010
0000
0000
0100
,  // measure 32
1000
0000
0110
0000
0000
0000
0010
0100
0010
0000
1000
0000
0100
0000
0000
0001
,  // measure 33
0100
0000
1000
0000
1001
0000
0000
0100
1000
0000
0100
0000
0010
0000
0000
0100
,  // measure 34
1000
0001
0020
0000
2030
0000
3020
0000
,  // measure 35
0032
0000
0000
0000
0103
0000
1000
0100
1000
0000
0100
0000
0100
0000
0010
0001
,  // measure 36
0010
0000
1000
0000
1000
0000
0001
0010
0001
0000
1000
0000
0100
0000
0010
0001
,  // measure 37
0010
0000
0000
0000
0000
0000
0001
1000
0001
0000
0100
0000
0010
0000
1000
0010
,  // measure 38
1000
0000
0100
0000
0001
0000
0100
1000
0100
0000
1000
0000
1001
0000
0000
0000
,  // measure 39
1000
0100
1000
0100
1000
0000
0000
0010
0001
0000
0000
0001
0010
0000
0000
0010
,  // measure 40
1000
0000
0000
1000
0100
0000
0000
0100
0001
0000
0100
0000
0020
0000
0001
0000
,  // measure 41
0001
0000
0000
0000
0100
0000
0030
0001
0100
0000
0000
0100
0010
0000
0000
0010
,  // measure 42
0001
0000
0000
0001
0010
0000
0000
0010
0100
0000
0010
0000
1000
0000
0001
0000
,  // measure 43
0001
0000
0000
0000
1100
0000
0100
0000
0010
0000
0001
0000
1000
0000
0000
0001
,  // measure 44
1000
0000
1010
0000
0000
0000
0001
0100
0001
0000
1000
0000
0010
0000
0000
1000
,  // measure 45
0010
1001
0000
0000
0200
0000
0320
0000
,  // measure 46
0032
0000
0000
0000
2003
0000
0000
3100
0010
0000
0001
0000
1000
0000
1000
0001
,  // measure 47
1000
0000
0010
0000
0100
0000
0000
0001
0010
0000
0000
0010
0001
0000
0000
0001
,  // measure 48
1000
0000
0000
1000
0100
0000
0000
0100
0010
0000
0001
0000
2000
0000
0001
0000
,  // measure 49
0001
0000
0000
0000
0100
0000
3000
0001
0010
0000
0000
0010
0100
0000
0000
0100
,  // measure 50
1000
0000
0000
1000
0100
0000
0000
0100
1000
0000
0100
0000
1000
0000
0010
0100
,  // measure 51
0010
0000
1000
0000
1100
0000
0000
1000
0100
0000
0001
0000
0101
0000
0000
0000
,  // measure 52
0000
0000
0100
0000
0010
0000
0000
0010
0001
0000
0100
0000
1002
0000
1000
0000
,  // measure 53
1000
0000
0003
0000
0000
0000
0000
1000
0001
0000
0001
0000
1001
0000
0000
0001
,  // measure 54
0100
0100
0110
0000
1100
0000
0011
0000
,  // measure 55
0110
0000
0000
0000
1001
0000
0100
0010
0100
0000
0001
0000
1000
0000
0010
0000
,  // measure 56
0100
0000
0001
0000
1000
0000
0010
0100
0010
0000
0001
0000
0010
0000
0110
0000
,  // measure 57
1001
0000
0000
0000
0000
0000
1000
0100
1000
0000
0001
0000
0010
0000
0001
0000
,  // measure 58
1000
0001
0110
0000
0000
0001
1000
0001
,  // measure 59
0100
1100
0110
1100
,  // measure 60
1001
0000
0000
0100
0010
0000
1000
0000
0001
0000
0000
0000
1001
0000
0000
0000
,  // measure 61
0101
0000
0010
0100
0010
0000
1000
0000
0001
0000
1000
0000
0001
0000
0110
0000
,  // measure 62
1001
0000
0000
0000
;
