#TITLE:The Wind of Gold;
#SUBTITLE:;
#ARTIST:Kors K;
#TITLETRANSLIT:;
#SUBTITLETRANSLIT:;
#ARTISTTRANSLIT:;
#CREDIT:;
#BANNER:;
#BACKGROUND:;
#LYRICSPATH:;
#CDTITLE:;
#MUSIC:The Wind of Gold.ogg;
#OFFSET:-0.420;
#SAMPLESTART:79.370;
#SAMPLELENGTH:12.000;
#SELECTABLE:YES;
#BPMS:0.000=170.360,96.000=85.180,112.000=170.301;
#STOPS:;
#BGCHANGES:;

//---------------dance-single - ----------------
#NOTES:
     dance-single:
     :
     Hard:
     14:
     0.692,0.738,0.478,0.028,0.684: // measure 1
0000
0000
0000
0000
,  // measure 2
0000
0000
0000
0000
,  // measure 3
0000
0000
0000
0000
,  // measure 4
0000
0000
0000
0000
,  // measure 5
0000
0000
0000
0000
,  // measure 6
0000
0000
0000
0000
,  // measure 7
1000
0100
0010
0100
1000
0001
0010
0100
,  // measure 8
1001
0000
0000
0000
,  // measure 9
0001
0000
0000
0100
0000
0000
0010
0000
0000
0000
0001
0000
0000
0000
0000
0000
,  // measure 10
1000
0000
0000
0100
0000
0000
0010
0000
0000
1000
0000
0000
0100
0000
0000
0000
,  // measure 11
0001
0000
0000
0100
0000
0000
0010
0000
0000
1000
0000
0000
0010
0000
0000
0000
,  // measure 12
0001
0000
0000
0010
0000
0000
0100
0000
0000
0010
0000
0000
0001
0000
0000
0000
,  // measure 13
0100
0000
0000
0010
0000
0000
0100
0000
0000
0000
0001
0000
0000
0000
0000
0000
,  // measure 14
1000
0000
0000
0100
0000
0000
0010
0000
0000
0100
0000
0000
1000
0000
0000
0000
,  // measure 15
0100
0000
0000
0010
0000
0000
0100
0000
0000
0001
0000
0000
1000
0000
0000
0000
,  // measure 16
0001
0000
0000
0100
0000
0000
0010
0000
0000
0001
0010
0000
0100
0000
1000
0000
,  // measure 17
1001
0000
0000
0110
0000
0000
1001
0000
0000
0000
0100
0000
0000
0000
0000
0000
,  // measure 18
1001
0000
0000
1100
0000
0000
0110
0000
0000
0011
0000
0000
1001
0000
0000
0000
,  // measure 19
0110
0000
0000
1100
0000
0000
0110
0000
0000
0101
0000
0000
1001
0000
0000
0000
,  // measure 20
1001
0000
0000
1010
0000
0000
1001
0000
0000
0011
0000
0000
0110
0000
0000
0000
,  // measure 21
1001
0000
0000
0110
0000
0000
1001
0000
0000
0000
0100
0000
2000
0000
3100
0010
,  // measure 22
0100
0000
0000
0101
0000
0000
1001
0000
0000
0110
0000
0000
1001
0000
0000
0000
,  // measure 23
1100
0000
0000
0011
0000
0000
1010
0000
0000
0101
0000
0000
1100
0000
0000
0000
,  // measure 24
0101
0000
0000
0011
0000
0000
1010
0000
0000
0110
0000
0000
1001
0000
0000
0000
,  // measure 25
1001
0010
0000
1000
0000
0001
0000
0100
0000
1000
0000
0100
0000
0010
0000
0100
,  // measure 26
0001
0010
0100
0010
0000
0001
0000
0010
0000
0100
0010
0001
0100
0000
0001
0000
,  // measure 27
0010
0000
0100
0000
0010
0000
1000
0000
0010
0000
0100
0000
0001
0000
1000
0010
,  // measure 28
0001
0000
0010
0000
0100
0000
0010
0000
0000
0000
1000
0000
0000
0000
0001
0000
0000
0000
0100
0000
0000
0000
0001
0000
0000
0000
1000
0000
0010
0100
0010
0100
,  // measure 29
0010
0000
0000
0000
1000
0000
0000
0100
0000
0001
0100
0000
0010
0100
0010
0100
,  // measure 30
0010
0000
0000
0000
0001
0000
0000
0100
0000
0001
0000
1000
0100
0000
0010
0000
,  // measure 31
0100
0000
0000
0000
0010
0000
0000
0100
0000
0010
0000
0001
0010
0000
0100
0000
,  // measure 32
0000
0000
1000
0000
0000
0100
0000
1000
0010
0000
0100
0000
0010
0000
0001
0000
,  // measure 33
0010
0000
0000
0000
0100
0000
0000
0001
0000
0010
0000
0100
1000
0000
0001
0010
,  // measure 34
0001
0000
0000
0000
0010
0000
0000
0100
0000
0010
0001
0000
0100
0000
0001
0000
,  // measure 35
0001
0000
0000
0000
0010
0000
0000
0100
0000
0010
0000
0000
0001
0000
0010
0000
,  // measure 36
0001
0100
0010
0100
0002
0000
0000
0000
1003
0010
0100
0010
1000
0000
0000
0000
,  // measure 37
1001
0000
0000
0000
0001
0000
0000
0010
0000
0100
0000
1000
0010
0000
1000
0100
,  // measure 38
1000
0000
0000
0000
0100
0000
0000
0010
0000
0100
0010
0000
0001
0000
0010
0000
,  // measure 39
1000
0000
0000
0000
1000
0000
0000
0010
0000
0100
0010
0000
0010
0000
0100
0000
,  // measure 40
0000
0000
1000
0000
0001
0010
0000
0100
0010
0000
0010
0000
0100
0000
1000
0000
,  // measure 41
0010
0000
0000
0000
1000
0000
0000
0100
0000
0010
0000
0100
1000
0000
0100
0010
,  // measure 42
0100
0000
0000
0000
0100
0000
0000
0001
0000
0100
0010
0000
0001
0000
1000
0000
,  // measure 43
0010
0000
0000
0000
0100
0000
0000
0100
0000
0010
0000
1000
0100
0000
0010
0000
,  // measure 44
0001
0010
0001
0000
1000
0000
0100
0000
0001
0000
1000
0000
0001
0000
0100
0000
,  // measure 45
1001
1000
0100
0001
0100
1000
0001
0100
,  // measure 46
1000
0100
0001
0010
1000
0010
0001
1000
,  // measure 47
0010
0001
0010
1000
0100
1000
0010
0001
,  // measure 48
0010
0100
0001
0010
0001
0100
1000
0100
,  // measure 49
0010
1000
0010
0001
0010
1000
0100
0001
,  // measure 50
0100
1000
0001
0010
0001
0100
0001
0100
,  // measure 51
0001
0010
0001
0010
0001
1000
0010
0100
,  // measure 52
1000
0001
0010
0100
0001
1000
0001
0010
,  // measure 53
1001
0000
0010
0100
0000
0001
0010
0000
0001
0100
0010
0000
0000
0000
0000
0000
,  // measure 54
1001
0000
0010
0001
0000
0010
0100
0000
1000
0010
0000
1000
0100
0000
0000
0000
,  // measure 55
1100
0000
0010
0100
0000
0010
0001
0000
0010
1000
0000
0010
0100
0000
0000
0000
,  // measure 56
0110
0000
0001
0100
0000
1000
0100
0000
0001
0010
0000
0100
1000
0000
0010
0000
,  // measure 57
1010
0000
0100
0010
0000
0010
0100
0000
1000
0100
0010
0000
0000
0000
0000
0000
,  // measure 58
0101
0000
1000
0100
0000
0010
0100
0000
1000
0010
0000
0001
0010
0000
0000
0000
,  // measure 59
1001
0000
0001
0010
0000
0010
0100
0000
0010
0100
0000
0010
0001
0000
0000
0000
,  // measure 60
0011
0000
1000
0100
0000
1000
0010
0000
0100
0010
0000
0100
0001
0000
0000
0000
,  // measure 61
0101
0000
1000
0100
1000
0000
0010
0000
0100
0001
0010
0000
0000
0000
0000
0000
,  // measure 62
1001
0000
0010
0001
0000
1000
0010
0000
1000
0100
0000
0010
0100
0000
0010
0000
,  // measure 63
1001
0000
0010
0100
0000
0100
0001
0000
0010
0100
0000
1000
0010
0000
0000
0000
,  // measure 64
0110
0000
0001
0100
0000
0010
0100
0000
0001
0100
0000
0001
0010
0000
0100
0000
,  // measure 65
1000
0100
1000
0000
1000
0000
0010
0000
1000
0000
0001
0000
0010
0000
0100
0000
,  // measure 66
0010
0001
0100
1000
0100
0010
0100
0001
,  // measure 67
0010
0001
1000
0010
0100
0010
1000
0001
,  // measure 68
0100
0000
1000
0000
0100
0000
0001
0000
0010
0000
0001
1000
0010
1000
0001
0010
,  // measure 69
0002
0000
0003
0000
;
