#TITLE:Super Gero Ge-ro;
#SUBTITLE:;
#ARTIST:S-C-U;
#TITLETRANSLIT:;
#SUBTITLETRANSLIT:;
#ARTISTTRANSLIT:;
#CREDIT:;
#BANNER:;
#BACKGROUND:;
#LYRICSPATH:;
#CDTITLE:;
#MUSIC:09. S-C-U - Super GERO GE-RO.ogg;
#OFFSET:-1.820;
#SAMPLESTART:59.310;
#SAMPLELENGTH:12.000;
#SELECTABLE:YES;
#BPMS:0.000=188.000;
#STOPS:;
#BGCHANGES:;

//---------------dance-single - ----------------
#NOTES:
     dance-single:
     :
     Hard:
     15:
     0.813,0.819,0.171,0.114,0.538: // measure 1
0000
0000
0000
0000
,  // measure 2
0000
0000
0000
0000
,  // measure 3
0000
0000
0000
0000
,  // measure 4
1000
0000
0001
0010
0001
0000
1000
0000
0100
0000
1000
0000
0001
0100
0001
0100
,  // measure 5
0001
0000
1000
0000
0100
0000
0001
0000
0100
0000
1000
0000
0001
1000
0001
1000
,  // measure 6
0001
0000
0100
0010
0100
0000
0010
0000
1000
0000
0001
0000
1000
0010
0100
0010
,  // measure 7
1000
0000
0001
0000
0010
0000
0100
0000
0010
0000
0001
0000
1000
0100
1000
0100
,  // measure 8
1000
0000
0001
0010
0001
0000
1000
0000
0100
0000
0010
0000
0001
0100
0010
0100
,  // measure 9
0001
0000
1000
0000
0001
0000
0010
0000
0100
0000
1000
0000
0010
0100
0010
0100
,  // measure 10
0010
0000
1000
0001
1000
0000
0001
0000
0100
0000
0010
0000
0100
0010
0100
0000
,  // measure 11
0110
0000
0011
0000
0110
0000
1100
0000
0110
0000
1001
0000
,  // measure 12
0100
0001
0000
0001
0000
1000
0000
0100
,  // measure 13
0000
0100
0010
0100
0000
0001
0000
0100
,  // measure 14
0100
1000
0000
0001
0000
0010
0000
0100
,  // measure 15
0000
0100
1000
0001
0000
0001
1000
0010
,  // measure 16
0001
0000
0000
0001
0000
0000
0001
0000
0000
0000
0001
0000
0010
0000
1000
0000
,  // measure 17
0001
0000
0000
0010
0000
0000
0100
0000
0000
0000
0001
0000
0100
0000
0010
0000
,  // measure 18
0100
0000
0010
0100
0000
1001
0000
1000
,  // measure 19
0000
0001
0010
0000
0100
1000
0100
0010
,  // measure 20
1001
1000
0000
0100
0000
0010
0000
0100
,  // measure 21
0000
1000
0001
0100
0000
1000
0000
0100
,  // measure 22
0001
1000
0000
0010
0000
0110
0000
1000
,  // measure 23
0000
0001
0100
0010
0000
1000
0001
0010
,  // measure 24
0100
0000
0100
1000
0000
0000
0001
0000
0000
0000
0100
0000
0010
0000
0100
0000
,  // measure 25
0001
0000
1000
0001
0000
0000
0100
0000
0000
0000
0001
0000
1000
0000
0010
0000
,  // measure 26
0100
0000
0000
0010
0000
0000
1000
0000
1000
0000
0000
0000
0000
0000
0000
0000
,  // measure 27
1001
0000
1000
0001
1000
0000
0001
1000
0001
0000
1001
0000
0000
0000
1000
0100
,  // measure 28
1000
0100
0001
0100
0000
0000
0100
0001
,  // measure 29
0100
1000
0000
1000
0001
0100
0010
1000
,  // measure 30
0001
0010
1000
0010
0000
0000
0010
1000
,  // measure 31
0010
0000
0000
0001
0000
0000
0000
0000
0000
0000
0001
0000
1000
0000
0100
0000
0010
0000
0100
0000
1000
0000
0001
0000
,  // measure 32
0010
0001
1000
0001
0100
0000
0001
1000
,  // measure 33
0001
0000
0100
0000
0001
0000
1000
0100
1000
0000
0001
0000
0010
0000
0100
0000
,  // measure 34
1000
0000
0001
1000
0001
0000
0010
0000
0001
0000
1000
0000
0100
0000
0001
0000
,  // measure 35
0000
0000
0001
0000
0100
0000
0001
0000
0100
0000
1000
0010
1000
0000
0001
0000
,  // measure 36
0100
0010
0100
0001
0000
1001
0000
0001
,  // measure 37
0000
0000
0100
0000
0100
0000
0100
0010
0100
0000
0001
0000
1000
0000
0100
0000
,  // measure 38
1000
0001
0010
0001
0000
1000
0000
0101
,  // measure 39
0000
0000
0001
0000
1000
0000
0001
0100
0001
0000
1000
0000
0010
0000
0100
0010
,  // measure 40
0200
0000
0000
0302
0000
1000
1000
1000
,  // measure 41
0000
0000
0100
0000
0100
0000
0103
0000
0000
0000
0010
0000
1000
0000
0001
0010
,  // measure 42
0000
0001
0100
1000
0000
1000
0100
0001
,  // measure 43
0000
0000
1000
0100
1000
0000
0001
0100
0001
0000
1000
0001
1000
0001
1000
0001
,  // measure 44
1000
1001
0000
0100
1100
0000
0100
0202
,  // measure 45
0000
0000
0000
0303
,  // measure 46
1000
0000
0001
0010
0000
0001
0010
0000
0000
0000
0001
0000
1000
0000
0001
0000
,  // measure 47
1000
0000
0100
0010
0000
0100
0010
0000
0000
0000
0001
0000
1000
0000
0010
0000
,  // measure 48
0100
0000
0001
1000
0000
0001
1000
0000
0000
0000
0010
0000
1000
0000
0001
0000
,  // measure 49
0010
0000
0100
0010
0000
0000
0001
1000
0001
0000
1000
0100
1000
0100
1000
0000
,  // measure 50
0001
0000
0000
0001
0000
0000
0100
0000
0010
0000
0000
0100
0000
0000
0001
0000
,  // measure 51
0010
0000
0000
0000
0000
0000
0100
1000
0100
0000
0010
0001
0010
0001
0010
0000
,  // measure 52
1000
0000
0000
0010
0000
0000
0001
0000
0001
0000
0000
0000
0000
0000
0001
1000
,  // measure 53
0001
0000
0010
0000
0001
0000
1000
0000
0001
0010
0001
0010
0001
1000
0100
1000
,  // measure 54
0100
0000
1000
0100
0000
1000
0001
0000
0000
0000
0001
0000
0100
0000
0010
0000
,  // measure 55
1000
0000
0100
1000
0000
0100
1000
0000
0000
0000
0001
0000
0100
0000
0001
0000
,  // measure 56
0100
0000
0010
1000
0000
0010
1000
0000
0000
0000
1000
0000
0001
0000
0010
0000
,  // measure 57
0100
0000
1000
0001
0000
0000
0010
0000
0100
0000
0010
0001
1000
0001
1000
0001
,  // measure 58
0100
0000
0100
0010
0000
0000
0010
0000
0010
0000
0010
1000
0000
0000
0001
0000
,  // measure 59
2000
0000
0000
0000
0000
3000
0001
0100
0001
0000
1000
0001
1000
0001
1000
0001
,  // measure 60
1000
0000
0001
0100
0000
0000
0100
0000
0100
0000
0000
0000
0000
0000
0001
0100
,  // measure 61
0001
0000
1000
0000
0010
0000
0100
0000
0001
1000
0001
1000
0001
1000
0001
0000
,  // measure 62
1002
1000
0000
0100
0000
0010
0000
1000
,  // measure 63
0000
0100
0000
0010
0000
1000
0000
0010
,  // measure 64
0010
0010
0000
1000
0000
0100
0000
1000
,  // measure 65
0003
0010
2000
0000
3200
0001
0302
0000
,  // measure 66
0023
0000
0000
0000
0000
0000
0000
1030
,  // measure 67
2000
0000
0000
0000
0000
0000
0000
0001
,  // measure 68
3002
0100
0000
1000
1000
1003
0000
1000
,  // measure 69
1000
0000
0001
0010
0000
0000
1000
0000
1000
0000
0010
0000
0001
0100
0001
0100
,  // measure 70
0001
0000
0000
0000
1001
0000
0010
0000
0100
0000
0010
0000
0001
1000
0001
1000
,  // measure 71
0001
0000
0100
0000
0001
0000
0010
0000
0001
0000
1000
0000
0100
0010
0100
0010
,  // measure 72
0100
0000
1000
0001
0100
0000
0100
0000
0010
0000
1000
0000
0001
0010
0001
0010
,  // measure 73
0001
0000
0100
0000
0010
0000
1000
0000
0100
0000
0010
0000
0100
0001
0100
0001
,  // measure 74
0100
0000
1000
0001
1000
0000
0010
0000
0100
0000
0001
0000
1000
0100
1000
0100
,  // measure 75
1000
0000
0010
0000
0001
0000
0010
0000
1000
0000
0100
0000
1000
0010
1000
0010
,  // measure 76
1000
0000
0001
1000
0100
0000
0001
0000
0100
0000
1000
0000
0001
0100
0010
1000
,  // measure 77
0100
0000
1000
0001
1000
0000
0010
0100
0010
0000
1000
0001
0100
0010
1000
0001
,  // measure 78
1000
0001
0000
0100
0000
0010
0000
1000
,  // measure 79
0000
0100
0100
0000
0000
0000
0000
0000
;
