#TITLE:Strong Woman;
#SUBTITLE:;
#ARTIST:Asami feat. Dabo;
#TITLETRANSLIT:;
#SUBTITLETRANSLIT:;
#ARTISTTRANSLIT:;
#CREDIT:;
#BANNER:;
#BACKGROUND:;
#LYRICSPATH:;
#CDTITLE:;
#MUSIC:2-23_strong_woman_feat.dabo.ogg;
#OFFSET:-0.080;
#SAMPLESTART:0.050;
#SAMPLELENGTH:12.000;
#SELECTABLE:YES;
#BPMS:0.000=92.380;
#STOPS:;
#BGCHANGES:;

//---------------dance-single - ----------------
#NOTES:
     dance-single:
     :
     Hard:
     12:
     0.566,0.553,0.531,0.166,0.525: // measure 1
0000
0000
0000
0000
,  // measure 2
0000
0000
0000
0000
,  // measure 3
0000
0000
0000
0000
,  // measure 4
0000
0000
0000
0000
,  // measure 5
0001
0000
1000
0100
0010
0000
0000
0000
0000
0000
0010
0100
0010
0000
0000
0001
,  // measure 6
0100
0000
0000
0000
1001
0000
0000
0000
0100
0000
0010
0100
0010
0000
0000
1000
,  // measure 7
0001
0000
0100
0010
1000
0000
0000
0000
1001
0000
0000
0100
1000
0000
0000
0001
,  // measure 8
1000
0000
0001
0010
1100
0000
0000
0000
0011
0000
1000
0000
0100
0000
0000
0000
,  // measure 9
1010
0000
0010
1000
0001
0000
0000
0001
1000
0000
0100
0010
0001
0000
0000
0001
,  // measure 10
0011
0000
0010
0001
0100
0000
0000
0100
0010
0000
1000
0001
0010
0000
0000
0100
,  // measure 11
1100
0000
1000
0010
0110
0000
0100
0001
0010
0000
0000
0100
1000
0000
1000
0001
,  // measure 12
0011
0000
0001
1000
1100
0000
0000
1000
0001
0000
0010
0000
0100
0000
1000
0001
,  // measure 13
0100
0000
0010
0000
0101
0000
0000
0000
1000
0001
0010
0100
0010
0001
1000
0010
,  // measure 14
0200
0000
1300
0100
0001
0000
0010
0000
0100
1000
0100
0010
0100
1000
0001
0100
,  // measure 15
0002
0000
0013
0100
0010
0000
1000
0000
0010
0100
0010
0001
0010
1000
0010
0100
,  // measure 16
0002
0000
0103
0010
0100
0000
0001
0000
1000
0000
0010
0000
0100
0000
0001
0000
,  // measure 17
0010
0000
1100
0000
1001
0000
0100
0010
1000
0001
0010
0100
1000
0100
0010
0001
,  // measure 18
2000
0000
3010
0100
0010
0000
1000
0000
1000
0100
1000
0010
0100
0001
1000
0010
,  // measure 19
0200
0000
0301
0010
0001
0000
1000
0000
0100
0010
0100
1000
0100
0001
0100
0010
,  // measure 20
0002
0000
0103
0010
0100
0000
1001
0000
0110
0000
0100
1000
0010
0000
0100
0000
,  // measure 21
0011
0000
0000
0000
1000
0100
0010
0001
1000
0000
0010
0100
0100
0000
0001
0010
,  // measure 22
0110
0000
1100
0000
0110
0000
0001
0010
0001
1000
0010
0100
0010
0000
1000
0010
,  // measure 23
0110
0000
0101
0000
0110
0000
1000
0100
1000
0000
0010
0000
0001
0000
0010
1000
,  // measure 24
1001
0000
1100
0000
1001
0000
0010
0100
0001
0000
1000
0000
0200
0000
0000
0310
,  // measure 25
0001
0000
1000
0010
0100
0010
1000
0001
0100
0000
0010
0100
0001
0000
1000
0100
,  // measure 26
1100
0000
0110
0100
1000
1000
0001
0010
0100
0010
0001
1000
0010
0000
0100
0010
,  // measure 27
1010
0000
1001
0000
0110
0000
0100
0001
0010
0000
0001
0010
1000
0000
1000
0010
,  // measure 28
0011
0000
0110
0000
1001
0000
0100
0010
0100
0000
0001
0000
2000
0000
3001
0010
,  // measure 29
0001
0000
0001
0010
0120
0000
0000
1030
0100
0000
0110
0000
2001
0000
0000
3010
,  // measure 30
0100
0000
1100
0000
0012
0000
0000
1003
0100
0000
1010
0000
0201
0000
0000
0310
,  // measure 31
0001
0000
1000
0010
1200
0000
0000
0310
0100
0000
1100
0000
0012
0000
0003
0100
,  // measure 32
0011
0000
1010
0000
0201
0000
0000
1300
0010
0000
0110
0000
1001
0000
0100
0010
,  // measure 33
0100
0000
1000
0001
1000
0000
0000
0000
0000
0000
0000
0000
0000
0000
0000
0000
;
