#TITLE:smooooch;
#SUBTITLE:;
#ARTIST:kors k;
#TITLETRANSLIT:smooooch;
#SUBTITLETRANSLIT:;
#ARTISTTRANSLIT:;
#CREDIT:;
#BANNER:smooooch-bn.png;
#BACKGROUND:smooooch-bg.png;
#LYRICSPATH:;
#CDTITLE:CDTitle.jpg;
#MUSIC:smooooch.mp3;
#OFFSET:-2.805;
#SAMPLESTART:20.998;
#SAMPLELENGTH:11.920;
#SELECTABLE:YES;
#DISPLAYBPM:177.000;
#BPMS:0.000=177.000,68.000=177.000,173.000=177.000,182.000=177.000,191.000=177.000,195.000=177.000,200.000=177.000,264.000=177.000;
#STOPS:;
#BGCHANGES:;

//---------------dance-single - ----------------
#NOTES:
     dance-single:
     :
     Hard:
     9:
     0.692,0.740,0.503,0.104,0.265: // measure 1
0000
0000
0000
0000
,  // measure 2
0000
0000
0000
0000
,  // measure 3
0000
0000
0000
0000
,  // measure 4
0000
0000
0000
0000
,  // measure 5
0000
0000
0000
0000
,  // measure 6
0000
0000
0000
0000
,  // measure 7
0000
0000
0000
0000
,  // measure 8
1000
0000
0100
0000
0010
0000
0000
0000
0010
0000
0100
0000
1000
0000
0000
1000
,  // measure 9
0000
0000
1000
0000
0000
0000
0010
0000
0000
0010
0000
0000
0010
0000
0000
0010
,  // measure 10
0001
0000
0010
0000
0100
0000
0000
0000
0100
0000
0010
0000
0001
0000
0000
0001
,  // measure 11
0000
0000
0001
0000
0000
0000
0100
0000
0000
0100
0000
0000
0100
0000
0000
0100
,  // measure 12
0010
0000
0100
0000
0001
0000
0000
0000
0001
0000
0100
0000
0010
0000
0000
0010
,  // measure 13
0000
0000
0010
0000
0000
0000
0100
0000
0000
0001
0000
0000
1000
0000
0000
0010
,  // measure 14
0100
0000
0010
0000
1000
0001
1000
0000
0100
0010
0100
0000
1000
0010
1000
0000
,  // measure 15
0100
0001
0100
0000
2002
0000
0000
0000
3003
0000
0000
0000
0220
0000
0000
0000
,  // measure 16
0330
0000
1001
0000
0010
0100
0010
0000
,  // measure 17
0000
0110
0000
0010
0100
0001
1000
0000
,  // measure 18
1000
0100
0001
0000
0101
0000
0001
0100
,  // measure 19
0000
0010
0000
0100
0010
0100
0001
0100
,  // measure 20
0010
0000
1100
0000
0100
0010
0100
0000
,  // measure 21
0000
1001
0000
0100
0010
1000
0100
0000
,  // measure 22
0110
0000
0001
0100
0010
1000
0100
0010
,  // measure 23
0001
0100
1000
0000
1000
0100
0001
0000
,  // measure 24
0101
0000
1001
1000
0100
1000
0100
1000
,  // measure 25
0001
0010
0001
0010
0001
0010
0001
0100
,  // measure 26
0010
0100
0010
1000
0001
1000
0001
1000
,  // measure 27
0010
0100
0010
0100
0010
1000
0010
1000
,  // measure 28
0010
1000
0001
0100
0001
0100
1000
0100
,  // measure 29
1000
0100
1000
0100
0001
0010
1000
0010
,  // measure 30
1000
0010
1000
0010
0001
0010
0100
0010
,  // measure 31
0001
0010
0100
1000
0010
0100
0001
0010
,  // measure 32
0110
0000
0000
0000
1000
0000
1000
0000
1000
0000
1000
0000
1000
0000
0100
0010
,  // measure 33
0100
0000
0000
0000
0110
0000
0000
1100
0000
0000
0001
0000
0100
0000
0001
0000
,  // measure 34
1000
1100
0110
0011
,  // measure 35
0110
1100
1001
1010
,  // measure 36
1100
0000
0000
0000
0010
0000
0010
0000
0010
0000
0010
0000
0010
0000
1000
0001
,  // measure 37
1000
0000
0000
0000
1001
0000
0000
0110
0000
0000
0100
0000
0010
0000
1000
0000
,  // measure 38
0010
0110
1001
0110
,  // measure 39
1001
0000
1000
1000
0100
0100
0010
0010
,  // measure 40
0100
0010
0001
0000
0001
0010
0100
0000
,  // measure 41
0000
0000
0000
0000
1100
0000
0000
0101
0000
0000
0100
0000
0010
1000
0010
0000
,  // measure 42
1010
0010
0100
0000
0100
0010
1000
0000
,  // measure 43
0000
0000
0000
0000
0010
0100
0000
0000
0010
0000
0100
0000
0010
0000
1000
0100
,  // measure 44
0010
0100
0010
0100
0001
0000
0100
0000
1000
0000
0001
0000
1000
0000
0000
0000
,  // measure 45
0000
0000
0000
0000
0101
0000
0001
0100
0000
1000
0100
0000
0001
0000
1000
0000
,  // measure 46
0100
0110
1001
0220
,  // measure 47
0000
0330
0100
0001
1000
0010
0001
1000
,  // measure 48
0001
0010
1000
1000
0100
0010
0010
1000
,  // measure 49
0001
1000
0010
0001
0001
0100
0010
0100
,  // measure 50
0001
1000
0100
0100
1000
0010
0100
0100
,  // measure 51
0001
0010
0100
0100
0001
0100
1000
1000
,  // measure 52
0010
0100
1000
0001
0010
0100
0001
0001
,  // measure 53
1000
0010
0010
1000
0001
0010
0100
0010
,  // measure 54
0001
0100
1000
0100
0001
0010
1000
0010
,  // measure 55
0001
0001
0022
0000
0033
0000
2002
0000
,  // measure 56
3003
0000
1010
0000
0010
1000
0010
0000
,  // measure 57
0100
0100
0000
0001
0100
0010
1000
0000
,  // measure 58
1000
0010
0100
0000
0001
0010
0100
0010
,  // measure 59
0001
1000
0001
1000
0100
0010
0100
1000
,  // measure 60
0001
0000
0101
0000
0100
0001
0100
0000
,  // measure 61
1001
1001
0000
1000
0001
1000
0001
0000
,  // measure 62
0110
0000
1000
0010
0100
0001
0010
0100
,  // measure 63
1000
0010
0100
0000
1001
0000
0110
0000
,  // measure 64
0101
0000
0000
0000
1010
0000
0000
1000
0010
0000
0000
0010
0100
0000
0000
0100
,  // measure 65
0010
0000
0000
0010
1000
0000
0000
1000
0010
0000
0000
0010
0001
0000
0000
0001
,  // measure 66
0010
0000
0000
0010
1000
0000
0000
1000
0100
0000
0000
0100
0010
0000
0000
0010
,  // measure 67
0001
0000
0000
0001
0100
0000
0000
0100
0010
0000
0000
0010
0100
0000
0000
0100
,  // measure 68
0001
0000
0000
0001
0010
0000
0000
0010
0100
0000
0000
0100
0001
0000
0000
0001
,  // measure 69
0100
0000
0000
0100
1000
0000
0000
1000
0010
0000
0000
0010
0001
0000
0000
0001
,  // measure 70
0010
0000
0000
0010
0100
0000
0010
0000
0001
0000
0010
0000
0100
0000
0010
0000
,  // measure 71
0001
1000
0100
0001
0010
1000
1000
0001
,  // measure 72
0011
0000
0000
0000
1100
0000
0000
1000
0100
0000
0000
0100
0010
0000
0000
0010
,  // measure 73
0001
0000
0000
0001
1000
0000
0100
0000
1000
0000
0001
0000
1000
0000
0000
0010
,  // measure 74
0100
0000
0001
0000
0100
0000
0000
0010
0100
0000
0000
0100
1000
0000
0000
1000
,  // measure 75
0100
0000
0000
0100
0001
0000
0000
0001
0010
0000
0100
0000
0010
0000
1000
0000
,  // measure 76
0010
0100
0001
0000
1010
1001
0000
1001
,  // measure 77
1100
1001
0000
1100
0000
0110
1001
0000
,  // measure 78
1000
0100
0010
0001
1000
0000
0100
0000
0001
0000
0100
0000
1000
0000
0100
0000
,  // measure 79
0001
0100
1000
0000
0100
0010
0110
0000
,  // measure 80
1001
0220
0000
0000
,  // measure 81
0000
0000
0000
0000
,  // measure 82
0000
0330
0000
0000
;
