#TITLE:Rislim;
#SUBTITLE:;
#ARTIST:Riewo;
#TITLETRANSLIT:;
#SUBTITLETRANSLIT:;
#ARTISTTRANSLIT:;
#CREDIT:;
#BANNER:;
#BACKGROUND:;
#LYRICSPATH:;
#CDTITLE:;
#MUSIC:Rislim - Ric.ogg;
#OFFSET:-0.380;
#SAMPLESTART:100.050;
#SAMPLELENGTH:12.000;
#SELECTABLE:YES;
#BPMS:0.000=130.020;
#STOPS:224.000=0.240
;
#BGCHANGES:;

//---------------dance-single - ----------------
#NOTES:
     dance-single:
     :
     Hard:
     12:
     0.705,0.844,0.079,1.000,0.356: // measure 1
0000
0000
0000
0000
,  // measure 2
0000
0000
0000
0000
,  // measure 3
0000
0000
0000
0000
,  // measure 4
0000
0000
0000
0000
,  // measure 5
1001
0000
0100
0010
1000
0001
0010
0100
,  // measure 6
1000
0001
1001
0000
0100
0001
0010
0100
,  // measure 7
1000
0001
1001
0000
0010
0001
0100
0010
,  // measure 8
1000
0001
1001
0010
1000
0001
0010
0100
,  // measure 9
1000
0000
0100
0000
0001
0000
0100
0000
0010
0000
0100
0000
1000
0100
1000
0010
,  // measure 10
0000
0010
1000
0100
1000
0000
0100
0000
1000
0000
0100
0000
1000
0001
0010
0001
,  // measure 11
0000
0001
0010
0001
1000
0000
0010
0000
0100
0000
0100
0000
0001
0100
0001
0010
,  // measure 12
0000
0010
0001
0100
0001
0000
0010
0001
0010
0001
1000
0100
1000
0010
0100
0001
,  // measure 13
1000
0100
0000
0100
1000
0000
1000
0100
0000
0100
1000
0000
1000
0001
0000
0001
,  // measure 14
0010
0000
0010
0001
0000
0001
1000
0000
1000
0100
0000
0100
1000
0000
1000
0010
,  // measure 15
0000
0010
1000
0000
1000
0100
0000
0100
0010
0000
0010
0001
0000
0001
0010
0000
,  // measure 16
0010
0100
0000
0100
1000
0000
1000
0010
0000
0010
0100
0000
0100
0001
0000
0001
,  // measure 17
2000
0000
3020
0230
0300
0200
0320
0000
,  // measure 18
2030
0020
3000
2030
3200
0320
0230
2300
,  // measure 19
3002
0003
0002
0000
2003
0000
3200
0000
0300
0000
0020
0000
0032
0003
0002
0000
,  // measure 20
2003
0000
3200
0000
0320
0030
0020
0000
0032
0000
0023
0000
0230
0000
2300
0000
,  // measure 21
3020
0030
2000
3002
0000
0023
0230
0000
,  // measure 22
0320
2030
0000
3020
0230
2300
3002
0023
,  // measure 23
0230
0300
0200
0000
0302
0000
2003
0000
0000
0000
3020
0000
0230
0300
0200
0000
,  // measure 24
2300
0000
3002
0000
0023
0030
0020
0000
0230
0000
0302
0000
2003
0000
3020
0000
,  // measure 25
0130
0010
0100
1000
0000
1000
0010
0100
0010
1000
0001
0010
0001
1000
0010
0100
,  // measure 26
0001
0100
0010
1000
0100
0010
0001
0010
0100
1000
0001
0100
0010
1000
0001
1000
,  // measure 27
0010
0000
1000
0010
0000
0010
0100
0000
0100
1000
0000
1000
0100
0000
0001
0000
,  // measure 28
0001
0000
0100
0001
0000
0001
0010
0000
0010
1000
0000
1000
0010
0100
0010
0001
,  // measure 29
0020
0000
0230
2300
0000
3020
0230
0000
,  // measure 30
0302
2003
0000
3200
0320
0230
2300
3020
,  // measure 31
0230
0300
0200
0000
2300
0000
3200
0000
0000
0000
0320
0000
0032
0003
0002
0000
,  // measure 32
0023
0000
0230
0000
0302
0000
0203
0000
0320
0000
0032
0003
0002
0000
0023
0000
,  // measure 33
2030
0000
3200
0320
0000
0032
0023
0030
,  // measure 34
0200
0302
0000
0203
0320
0230
2300
3002
,  // measure 35
0023
0030
0020
0000
0230
0000
0302
0000
0000
0000
2003
0000
3020
0030
0020
0000
,  // measure 36
0230
0302
2003
3020
0032
0203
0320
0130
,  // measure 37
0001
1000
0001
0020
0000
0130
1000
0002
,  // measure 38
0000
0000
0000
0000
0000
0000
1003
0010
,  // measure 39
0100
0010
1000
0001
0000
0001
1000
0100
,  // measure 40
0000
0000
0000
0000
0100
0000
1000
0000
0010
0000
0000
0000
0010
0100
0010
0100
,  // measure 41
0020
0000
0000
0200
0000
0030
0002
0300
,  // measure 42
2000
0000
0003
0002
0000
3000
0203
0000
,  // measure 43
0020
0000
0300
2000
0000
0030
3010
0100
,  // measure 44
0000
0000
0000
0000
0000
0000
0000
0000
0010
0100
0010
0000
1000
0001
0010
0100
,  // measure 45
1000
0001
1000
0001
0100
0001
0010
0001
0000
0000
0000
0000
0010
0000
0100
0000
,  // measure 46
0010
0000
0001
0000
0010
0001
0000
0000
0001
0000
0000
0000
1000
0000
0001
0000
,  // measure 47
0010
0000
0010
1000
0000
1000
0010
0100
,  // measure 48
0001
0000
0001
0100
0000
0100
1000
0001
,  // measure 49
0100
0010
0000
1000
0010
0100
0010
1000
0000
1000
0010
0000
0100
0000
0010
0000
,  // measure 50
0001
0000
0010
0000
0100
0001
0000
0000
0001
0000
0000
0000
0100
0000
0001
0000
,  // measure 51
0010
0000
0001
0010
0000
0100
1000
0001
,  // measure 52
0010
0000
0100
0001
0000
0001
0100
1000
,  // measure 53
0020
0000
0000
0032
0000
0000
2003
0000
,  // measure 54
3200
0000
0000
0320
0000
0000
2030
0000
,  // measure 55
3002
0000
0000
0203
0000
0000
0320
0000
,  // measure 56
0032
0000
0000
2003
0000
0000
3200
0300
,  // measure 57
1001
0110
1000
0100
0010
0100
1000
1001
,  // measure 58
0100
0010
0100
0010
0001
1000
0001
1001
,  // measure 59
0001
0100
0010
0100
0001
0010
0100
0110
,  // measure 60
1000
0001
0010
0001
1000
0100
0010
0100
,  // measure 61
1000
0000
0000
0000
;
