#TITLE:Not Eternity;
#SUBTITLE:;
#ARTIST:Nekomata Master;
#TITLETRANSLIT:;
#SUBTITLETRANSLIT:;
#ARTISTTRANSLIT:;
#CREDIT:;
#BANNER:;
#BACKGROUND:;
#LYRICSPATH:;
#CDTITLE:;
#MUSIC:14.not eternity.ogg;
#OFFSET:-0.360;
#SAMPLESTART:59.110;
#SAMPLELENGTH:12.000;
#SELECTABLE:YES;
#BPMS:0.000=92.000;
#STOPS:;
#BGCHANGES:;

//---------------dance-single - ----------------
#NOTES:
     dance-single:
     :
     Hard:
     10:
     0.411,0.448,0.287,0.188,0.121: // measure 1
0000
0000
0000
0000
,  // measure 2
0000
0000
0000
0000
0000
0000
0000
1000
,  // measure 3
0001
0000
0010
0000
0100
0000
1000
0100
,  // measure 4
0010
0000
0010
0100
1000
0000
1000
0000
,  // measure 5
0010
0000
0001
0000
0010
0000
1000
0001
,  // measure 6
0010
0000
0000
0000
0100
0000
0000
0000
0010
0000
0000
0000
0001
0000
0000
1000
0001
0000
0000
0000
0000
0000
0000
0000
0000
0000
0000
0000
0010
0000
0000
0000
,  // measure 7
0002
0000
2003
0000
3020
0000
1030
0001
,  // measure 8
0020
0030
0010
0001
2000
0000
3200
0000
,  // measure 9
0320
0000
0230
0000
2300
0000
3010
0100
,  // measure 10
0001
0000
0000
0000
1000
0000
0000
0000
0001
0000
0000
0000
0010
0000
0000
0100
0010
0000
0000
0000
0000
0000
0000
0000
0000
0000
0000
0000
0000
0000
0000
0000
,  // measure 11
2002
0000
3003
0000
0220
0330
1100
0101
,  // measure 12
1001
0001
0010
0001
1000
0100
0100
1000
,  // measure 13
1001
0000
0000
0000
0000
0000
0000
0010
1000
0000
0000
0000
1000
0000
0000
0000
0100
0000
0000
0000
0010
0000
0000
0000
0001
0000
0000
0100
0010
0000
0000
0000
,  // measure 14
0110
1000
0100
0010
0110
1000
0010
0100
,  // measure 15
0000
0000
0000
0100
0000
0000
0000
0000
1000
0000
0000
0000
0100
0000
0000
0000
0000
0000
0010
0000
0000
0000
0000
0000
0100
0000
0000
0000
0000
0000
0001
0000
0000
0000
0000
0000
0110
0000
0000
0000
0000
0000
0000
0000
0000
0000
0000
0000
,  // measure 16
1001
0000
0000
0000
1010
0000
0000
0000
0101
0000
0000
0010
0100
0000
0001
0000
,  // measure 17
1000
0000
0000
0000
0100
0000
0000
0000
0010
0000
0000
0000
0100
0000
0000
0000
1000
0000
0000
0000
0010
0000
0000
0000
0001
0000
0000
0010
0100
0000
0000
0000
,  // measure 18
1000
0100
0001
0100
0010
1000
0100
0001
,  // measure 19
1000
0010
0200
0000
0000
0300
1010
0000
,  // measure 20
1001
0000
0000
0000
1000
0000
0000
0000
0100
0000
0000
0000
1000
0000
0000
0000
0010
0000
0000
0000
0100
0000
0000
0000
0010
0000
0000
0000
0100
0000
0000
0100
,  // measure 21
0001
0010
0001
0100
0010
1000
0100
1000
,  // measure 22
0010
0001
1100
0000
0101
0000
0011
0000
,  // measure 23
1010
0100
0010
0100
1001
0000
0110
0000
,  // measure 24
1000
0100
0010
0010
0100
1000
0100
0001
,  // measure 25
0100
0000
0000
0000
1000
0000
0000
0100
0010
0000
0000
0000
0000
0000
0000
0000
0200
0000
0000
0000
0000
0000
0000
0000
1300
0000
0000
0000
0010
0000
0000
0000
,  // measure 26
1000
0001
0010
0001
0100
1000
0010
1000
,  // measure 27
0100
0000
0000
0000
0001
0000
0000
0100
0010
0000
0000
0000
0000
0000
0000
0000
1001
0000
0000
0000
0001
0000
0000
0000
1100
0000
0000
0000
0000
0000
0000
0000
,  // measure 28
1001
1000
0010
0100
1000
0001
0010
0001
,  // measure 29
1000
0000
0000
0000
0100
0000
0000
0001
0010
0000
0000
0000
0000
0000
0000
0000
1010
0000
0000
0000
0000
0000
0000
0000
0010
0000
0000
0000
0100
0000
0000
0000
,  // measure 30
0001
0000
0010
0000
0100
0000
1000
0000
0002
0000
0000
0000
0203
0000
0000
0310
,  // measure 31
2000
0000
0000
0000
3200
0000
1300
0000
0001
0000
0000
0001
0010
0000
0001
0000
,  // measure 32
1000
0000
0000
1000
0001
0000
0010
0000
0100
0000
0000
0100
1000
0000
0100
0000
,  // measure 33
0001
0000
0000
0000
0200
0000
0000
0000
2300
0000
0000
3001
0010
0000
0100
0000
,  // measure 34
0001
0000
0000
0000
1000
0000
0000
0000
0010
0000
0000
0000
0001
0000
0000
0010
0001
0000
0000
0000
0000
0000
0000
0000
1001
0000
0000
0000
0010
0000
0000
0000
,  // measure 35
1000
0000
0100
0000
0010
0000
0001
0000
1000
0000
0000
0100
0010
0000
0100
0000
,  // measure 36
1000
0000
0000
0010
0100
0000
0001
0000
0100
0000
1000
0000
0010
0000
1000
0000
,  // measure 37
0100
0000
0001
0000
0010
0000
0100
0000
1000
0000
0000
0010
0100
0000
0001
0000
,  // measure 38
0010
0000
0000
0000
0001
0000
0000
0000
0100
0000
0000
0000
0001
0000
0100
0010
0100
0000
0000
0000
0000
0000
0000
0000
1001
0000
0000
0000
0100
0000
0000
0000
,  // measure 39
0010
0000
0000
0000
0001
0000
0010
0100
0010
0000
0000
0000
0000
0000
0000
0000
1001
0000
0000
0000
0000
0000
0000
0000
0110
0000
0000
0000
1000
0000
0100
1000
,  // measure 40
0100
0010
0110
0001
1100
0010
0101
1000
,  // measure 41
0011
0000
0000
0000
;
