#TITLE:Nanahoshi;
#SUBTITLE:;
#ARTIST:S-C-U;
#TITLETRANSLIT:;
#SUBTITLETRANSLIT:;
#ARTISTTRANSLIT:;
#CREDIT:;
#BANNER:;
#BACKGROUND:;
#LYRICSPATH:;
#CDTITLE:;
#MUSIC:Nanahoshi.ogg;
#OFFSET:-0.360;
#SAMPLESTART:59.110;
#SAMPLELENGTH:12.000;
#SELECTABLE:YES;
#BPMS:0.000=166.000;
#STOPS:160.000=0.720
;
#BGCHANGES:;

//---------------dance-single - ----------------
#NOTES:
     dance-single:
     :
     Hard:
     14:
     0.798,0.814,0.139,0.000,0.767: // measure 1
0000
0000
0000
0000
,  // measure 2
0000
0000
0000
0000
,  // measure 3
0000
0000
0000
0000
,  // measure 4
0000
0000
0000
0000
,  // measure 5
1000
0100
0000
0001
0100
0000
1000
0010
,  // measure 6
0000
0001
0010
0000
1001
0000
0110
0000
,  // measure 7
0010
1000
0000
0010
0001
0000
0100
1000
,  // measure 8
0000
0100
0001
0000
0110
0000
1001
0000
,  // measure 9
1000
0100
0000
1000
0001
0000
1000
0010
0000
1000
0100
0000
0001
0000
0100
0000
,  // measure 10
1000
0001
0000
0010
0001
0000
0100
0001
0000
1000
0001
0000
0010
0000
0100
0000
,  // measure 11
1000
0000
0100
0010
0100
0000
1000
0001
1000
0001
1000
0000
0010
0000
0100
0001
,  // measure 12
0100
0000
0010
0100
0010
0000
1000
0100
1000
0000
0100
0010
0100
0010
0100
0000
,  // measure 13
0001
0100
0000
1000
0100
0000
0010
0100
0000
1000
0010
0000
1000
0000
0010
0000
,  // measure 14
1000
0100
0000
0010
0001
0000
0100
0010
0000
1000
0001
0000
0100
0000
0010
0000
,  // measure 15
1000
0000
0010
0001
0010
0000
1000
0010
1000
0010
1000
0000
0001
0000
0100
0010
,  // measure 16
0100
0000
0001
1000
0001
0000
0010
1000
0010
0000
0100
0001
0100
0001
0100
0000
,  // measure 17
0010
0001
1000
0100
0010
0000
0100
0010
,  // measure 18
0100
1000
0001
0000
1000
0100
0001
0100
,  // measure 19
1000
0010
0001
0010
1000
0000
0100
0010
,  // measure 20
0000
0001
0100
0010
1000
0001
0001
0000
,  // measure 21
1000
0100
0001
0100
1000
0000
1000
0010
,  // measure 22
0001
0010
1000
0000
0001
1000
0001
0010
,  // measure 23
0100
0000
0010
0001
0100
0010
0000
0101
,  // measure 24
0000
0000
1000
0000
0100
0000
0010
0000
0001
0000
0100
0010
0100
0000
0000
0000
,  // measure 25
0001
0010
1000
0010
0001
0000
0001
0100
,  // measure 26
1000
0100
0001
0000
0001
0100
1000
0001
,  // measure 27
0010
1000
0010
0001
1000
0000
0100
0001
,  // measure 28
0000
0000
1000
0000
0100
0000
1000
0000
0100
0000
0010
0000
0110
0000
0001
0010
,  // measure 29
0000
0100
0010
0100
0010
0000
0100
0010
,  // measure 30
0100
1000
0100
0000
0100
0010
0001
1000
,  // measure 31
0010
0000
0100
0010
1000
0001
0000
0110
,  // measure 32
0000
0000
0010
0000
0100
0000
0001
0000
1000
0000
1000
0001
0100
0000
0001
1000
,  // measure 33
0010
0000
0100
0000
0001
0010
0000
0001
0000
0100
0000
0010
1000
0000
1000
0000
,  // measure 34
0100
0000
0010
0000
0001
0010
0000
0001
0000
0000
0000
0000
0000
0000
1000
0001
,  // measure 35
1000
0000
0010
0000
0100
0010
0000
1000
0000
0001
0000
0010
0100
0000
1000
0000
,  // measure 36
0001
0000
0010
0000
0100
1000
0000
0001
0000
0000
0000
0000
0000
0000
0010
0001
,  // measure 37
0010
0000
0000
0001
0000
0000
0100
0000
0010
0000
1000
0000
0001
0000
0100
1000
,  // measure 38
0100
0000
0000
0100
0000
0000
0001
0000
0100
0000
0010
0000
0100
0000
0001
1000
,  // measure 39
0001
0000
0000
0100
0000
0000
0010
0000
1000
0000
0001
0100
0001
0100
0001
0000
,  // measure 40
0010
0000
0011
0000
0000
0000
1100
0000
0000
0000
0110
0000
0000
0000
0001
0100
,  // measure 41
0001
0000
0000
0000
1000
0100
1000
0100
1000
0000
0000
0001
0000
0000
1000
0000
,  // measure 42
0100
0000
0000
0010
0000
0000
0001
0000
0100
0000
0000
0010
0000
0000
1000
0000
,  // measure 43
0001
0000
0010
0000
0100
0000
0001
0000
0100
0000
1000
0001
0000
1000
0001
0000
,  // measure 44
0010
0000
0100
0010
0000
0010
0100
0000
1000
0000
0001
1000
0010
1000
0001
0100
,  // measure 45
0001
0000
0100
0000
0010
0000
1000
0000
0001
0010
0001
0010
0000
0100
1000
0000
,  // measure 46
1000
0100
0000
0010
0001
0000
1000
0000
0010
0100
0010
0100
0000
0001
0010
0000
,  // measure 47
0010
0100
0000
0100
1000
0000
0100
0000
1000
0000
0100
1000
0001
1000
0100
0000
,  // measure 48
1000
0010
1000
0010
1000
0000
0100
0010
0100
0000
0001
0100
0000
1000
0001
1000
,  // measure 49
0001
0000
0010
0000
0001
0100
0001
0100
0001
0000
1000
0010
0000
0001
0010
0000
,  // measure 50
0100
0000
0010
0100
0000
0010
0100
0000
0001
0000
0001
1000
0000
1000
0100
0000
,  // measure 51
0100
0000
0001
0000
0100
0000
1000
0000
0010
0000
1000
0100
0000
0100
0010
0000
,  // measure 52
1000
0000
0010
0001
0000
0001
1000
0000
0100
0010
0100
0010
0000
0001
0010
0000
,  // measure 53
0100
0000
0010
0000
0001
0000
0100
0000
0001
0010
0001
0010
0000
0001
0100
0000
,  // measure 54
0100
0010
0000
0010
1000
0000
0010
0000
0100
0001
0100
0001
0000
0001
0010
0000
,  // measure 55
0010
0001
0000
0001
1000
0000
1000
0000
0100
0000
0010
0001
0010
0001
0010
0000
,  // measure 56
0100
0010
0100
0010
0100
0000
1000
0100
1000
0000
0010
0100
0000
0010
0100
0010
,  // measure 57
0100
0000
0001
0000
0001
0100
0010
1000
0100
0010
0000
0010
0001
0000
0001
0100
,  // measure 58
0000
0100
0010
0000
1000
0000
0001
0000
0010
0100
0000
0100
1000
0000
1000
0010
,  // measure 59
0000
0010
0100
0000
0001
0000
1000
0000
0100
0000
0010
0100
0010
0000
0001
1000
,  // measure 60
0001
1000
0001
0000
0100
0000
0010
1000
0010
0000
1000
0100
1000
0000
0100
0001
,  // measure 61
0100
0000
1000
0100
1000
0100
1000
0000
0001
0010
0000
0010
1000
0000
1000
0010
,  // measure 62
0000
0010
0001
0000
0001
0000
0100
0000
0010
1000
0000
1000
0100
0000
0100
1000
,  // measure 63
0000
1000
0001
0000
0010
0000
0001
0000
1000
0000
0001
0010
0001
0000
1000
0001
,  // measure 64
1000
0001
1000
0000
0010
0000
0100
0001
0100
0000
0010
0100
0010
0000
1000
0100
,  // measure 65
1000
0000
0001
0100
0001
0100
0001
0000
1000
0000
1100
0000
0000
0000
0001
0000
,  // measure 66
0101
0000
0001
1001
0000
0100
1100
0000
;
