#TITLE:Mind Mapping;
#SUBTITLE:;
#ARTIST:Unknown artist;
#TITLETRANSLIT:;
#SUBTITLETRANSLIT:;
#ARTISTTRANSLIT:;
#CREDIT:;
#BANNER:;
#BACKGROUND:;
#LYRICSPATH:;
#CDTITLE:;
#MUSIC:Mind Mapping.mp3;
#OFFSET:-3.800;
#SAMPLESTART:100.000;
#SAMPLELENGTH:12.000;
#SELECTABLE:YES;
#BPMS:0.000=128.000;
#STOPS:;
#BGCHANGES:;

//---------------dance-single - ----------------
#NOTES:
     dance-single:
     :
     Hard:
     8:
     0.602,0.820,0.240,0.840,0.141: // measure 1
0000
0000
0000
0000
,  // measure 2
0000
0000
0000
0000
,  // measure 3
0000
0000
0000
0000
,  // measure 4
0000
0000
0000
0000
,  // measure 5
0010
0100
0010
0100
0010
0000
0001
0010
,  // measure 6
0100
0010
0001
0100
1000
0000
0110
0000
,  // measure 7
0100
0010
0100
0010
0100
0000
1000
0100
,  // measure 8
0010
0100
1000
0001
0010
0100
0010
0001
,  // measure 9
0101
0001
1001
1000
1010
0010
0110
0100
,  // measure 10
0101
0001
0100
0001
0010
0000
1001
0100
,  // measure 11
0010
0001
0010
0100
1001
0000
0110
0000
,  // measure 12
1000
0100
0001
0100
1000
0000
0100
0010
,  // measure 13
0100
0000
1000
0001
0110
0000
0000
0000
,  // measure 14
2000
0010
0010
0010
3020
0000
0001
0001
,  // measure 15
0032
0100
0100
0100
0203
0000
1000
0000
,  // measure 16
2300
0010
0010
0010
3020
0000
1000
1000
,  // measure 17
2030
0000
0000
0000
,  // measure 18
3200
0320
0230
2300
0000
3020
0000
0230
,  // measure 19
0000
0302
0000
0203
0000
0320
0000
2030
,  // measure 20
3200
2300
3002
0023
0000
0230
0000
2300
,  // measure 21
0000
0000
3000
0002
0000
0000
0000
0000
,  // measure 22
2003
3020
0032
0023
0000
2030
0000
3200
,  // measure 23
0000
2300
0000
3002
0000
0203
0000
0320
,  // measure 24
0032
2003
3200
0302
0000
2003
0000
3020
,  // measure 25
0000
0230
0000
2300
0000
0000
0000
0000
,  // measure 26
3100
0000
0001
0000
1000
0000
0000
0010
1000
0000
0001
0000
0010
0000
0000
1000
,  // measure 27
0010
0000
0100
0000
0001
0000
0000
0100
0001
0000
0100
0000
1000
0000
0000
0010
,  // measure 28
1000
0000
0010
0000
0001
0000
0000
0010
0001
0000
0010
0000
0100
0000
0000
0100
,  // measure 29
1000
0000
0100
0000
0001
0000
0000
0010
0100
0000
0010
0000
1000
0000
0000
0001
,  // measure 30
1000
0000
0001
0000
0100
0000
0000
0010
0100
0000
0010
0000
0100
0000
0000
0001
,  // measure 31
0100
0000
0001
0000
1000
0000
0000
0100
1000
0000
0100
0000
1000
0000
0000
0010
,  // measure 32
1000
0000
0010
0000
0100
0000
0000
0010
0100
0000
0010
0000
1000
0000
0000
0001
,  // measure 33
1000
0000
0001
0000
0010
0000
0000
0001
0010
0000
0001
0000
0100
0000
0000
0100
,  // measure 34
1000
0100
0001
0010
0100
1000
0100
0001
,  // measure 35
0100
1000
0010
0001
1000
0000
1001
0000
,  // measure 36
0001
0010
0100
0001
0100
1000
0001
0100
,  // measure 37
1100
0000
0000
0101
1100
0000
0110
0000
,  // measure 38
0100
0001
0010
0100
1000
0000
1000
0100
,  // measure 39
0010
0001
0100
0010
1000
0000
1001
0000
,  // measure 40
0010
0100
0001
1000
0010
0000
0010
1000
,  // measure 41
0001
0010
0100
1000
0100
0001
1000
0010
,  // measure 42
0001
0000
1000
0000
0100
0000
0001
0000
1000
0000
0010
0000
0001
0010
1000
0010
,  // measure 43
0100
0000
0010
0000
0100
0000
1000
0000
0001
0000
0000
0010
0100
0000
0010
0000
,  // measure 44
0001
0000
0100
0000
1000
0000
0100
0000
0001
0000
0000
0010
0100
0000
0000
0100
,  // measure 45
0010
0000
0100
0000
0001
0000
0100
0000
1000
0000
0000
0010
0001
0000
1000
0000
,  // measure 46
0001
0000
0000
0000
0110
0000
0010
0001
1000
0000
0000
0000
1001
0000
0000
0010
,  // measure 47
0100
0000
0001
0000
0010
0000
0001
0000
0100
0000
0010
1000
0010
0000
0100
0000
,  // measure 48
1000
0000
0100
0000
0010
0000
1000
0000
0001
0000
0010
0100
0010
0000
0000
0000
,  // measure 49
1100
0000
0100
0000
0001
0000
0100
0000
1000
0000
0010
0001
0010
0000
1000
0000
,  // measure 50
0010
0000
1000
0000
0100
0000
0010
0000
0001
0000
1000
0000
1000
0001
0010
0100
,  // measure 51
2000
3020
0230
0302
0003
0220
0330
2200
,  // measure 52
3300
0000
0022
0000
0033
0000
0220
0000
0330
0000
2020
0000
3030
0000
0220
0300
,  // measure 53
0230
0302
0023
0230
0300
0202
0303
2020
,  // measure 54
0000
0000
3030
0000
0000
0000
0202
0000
0000
0000
0303
0000
0000
0100
0001
0100
,  // measure 55
0002
0203
2300
3200
0302
0023
2030
3020
,  // measure 56
0032
0203
0320
2030
3002
0023
0032
2003
,  // measure 57
3200
0320
0230
2300
3002
2003
3020
0032
,  // measure 58
0023
0000
2030
0000
3200
0000
0320
0000
0032
0000
2003
0000
3001
1000
0100
0010
,  // measure 59
0001
0000
0000
0000
;
