#TITLE:Koisuru Uchu Sensou!!;
#SUBTITLE:;
#ARTIST:Prim;
#TITLETRANSLIT:;
#SUBTITLETRANSLIT:;
#ARTISTTRANSLIT:;
#CREDIT:;
#BANNER:;
#BACKGROUND:;
#LYRICSPATH:;
#CDTITLE:;
#MUSIC:Koisuru Uchu Sensou.ogg;
#OFFSET:0.680;
#SAMPLESTART:49.610;
#SAMPLELENGTH:12.000;
#SELECTABLE:YES;
#BPMS:0.000=200.001;
#STOPS:;
#BGCHANGES:;

//---------------dance-single - ----------------
#NOTES:
     dance-single:
     :
     Hard:
     13:
     0.736,0.766,0.484,0.320,0.039: // measure 1
0000
0000
0000
0000
,  // measure 2
0000
0000
0000
0000
,  // measure 3
0000
1010
0000
0000
0000
1001
0000
0000
,  // measure 4
0000
1100
0000
0000
0000
0110
0000
0000
,  // measure 5
0000
0011
0000
0000
0000
0110
0000
0000
,  // measure 6
0000
0101
0000
0000
0000
1001
0000
0100
,  // measure 7
0001
0010
0100
0010
,  // measure 8
0100
0100
0000
0010
0000
0001
0000
0101
,  // measure 9
0000
0000
2100
0000
0000
0000
0000
3010
,  // measure 10
0001
0000
1000
0000
0100
0001
0000
0001
,  // measure 11
0100
0010
1000
0001
0010
0100
1000
0001
,  // measure 12
0100
0010
0100
0001
1000
0001
0100
0010
,  // measure 13
1000
0001
0010
0100
0010
0001
0010
0001
,  // measure 14
1000
0010
0100
0010
0000
0110
0000
0010
,  // measure 15
0100
0001
1000
0010
,  // measure 16
0100
0001
0000
0010
0000
0001
0000
1100
,  // measure 17
1100
0000
0101
0101
0000
1010
1010
0000
,  // measure 18
0011
0011
0000
0110
0000
1001
0000
0000
,  // measure 19
0010
0100
1000
0002
0000
0103
0010
1000
,  // measure 20
0001
0010
0200
0000
0310
0100
0010
0000
,  // measure 21
0001
1000
0001
0100
0010
1000
0001
0010
,  // measure 22
0001
1000
0002
0000
0103
0010
0100
0000
,  // measure 23
0001
1000
0100
1000
0001
0010
0000
0110
,  // measure 24
0000
1000
0002
0000
0000
0003
0100
0010
,  // measure 25
0000
1001
0000
0010
0100
0001
0000
0100
,  // measure 26
0000
0001
0000
0010
0001
1000
0001
0000
,  // measure 27
1000
0010
0100
0010
1000
0100
1000
0001
,  // measure 28
0010
0001
2000
0000
3010
0100
0001
0000
,  // measure 29
0010
0001
0100
0010
1000
0001
0010
0001
,  // measure 30
0100
0001
0020
0000
0031
0100
0010
0000
,  // measure 31
0001
0010
1000
0001
1000
0100
0000
0010
,  // measure 32
0001
0100
0001
2000
0000
3001
0000
0100
,  // measure 33
0000
0001
0000
0010
0000
0100
0000
1000
,  // measure 34
0001
0001
0000
1000
0010
0100
0000
0011
,  // measure 35
0000
1100
0000
0010
0001
1000
0000
0110
,  // measure 36
0000
1001
0000
0100
0001
0010
0000
0000
,  // measure 37
0000
0001
0000
1000
0100
0000
1000
0000
,  // measure 38
0000
0001
0010
0000
0010
0001
0000
0101
,  // measure 39
0000
1100
0000
1000
0001
0100
0010
0000
,  // measure 40
1000
0001
0010
0000
0000
0000
0000
0001
,  // measure 41
1000
0010
0100
0001
1000
0100
1000
0001
,  // measure 42
0001
0001
0001
1000
0100
0010
0100
1001
,  // measure 43
0000
0010
0100
0000
1000
0100
0001
0000
,  // measure 44
0001
0100
1000
0000
1000
0010
0100
0000
,  // measure 45
0100
0000
1010
0000
1001
0000
1000
0100
,  // measure 46
0001
0100
1000
0000
0100
0010
0001
0010
,  // measure 47
0000
0100
0010
0000
0001
0010
1000
0000
,  // measure 48
1000
0010
0002
0000
0000
0003
0000
1000
,  // measure 49
0001
0100
0001
2000
0000
3001
0020
0000
,  // measure 50
0030
1000
0000
0001
0010
0100
1000
0001
,  // measure 51
0000
0100
0010
0000
1000
0010
0100
0000
,  // measure 52
0100
0010
1000
0000
0001
0010
0100
0000
,  // measure 53
0100
0000
1000
0000
0001
0000
0010
0100
,  // measure 54
1000
0001
0100
0000
0010
1000
0010
0100
,  // measure 55
0000
0100
0010
0000
1000
0001
0010
0000
,  // measure 56
0010
0100
2000
0000
0000
3100
0010
0010
,  // measure 57
0000
1001
0000
0010
0100
1000
0001
0100
,  // measure 58
0010
1000
0002
0000
0000
0000
0000
0000
,  // measure 59
0003
1000
0010
0001
0010
0100
0001
0100
,  // measure 60
0010
1000
0010
0001
0010
1000
0100
2000
,  // measure 61
0000
0001
3002
0000
0000
0023
0000
0230
,  // measure 62
0000
0001
0000
1000
1300
0002
0000
2003
,  // measure 63
0000
0001
0000
0010
0000
0001
3000
1000
,  // measure 64
0100
0010
1000
0010
0100
0001
0100
0010
,  // measure 65
0000
0000
0100
0010
0100
0000
0000
0000
1000
0100
1000
0000
0000
0000
0001
0010
,  // measure 66
0001
0000
0000
0000
0100
0010
0100
0000
0010
0100
0010
0000
0000
0000
1010
0000
,  // measure 67
0000
0001
0000
1100
0000
0100
0000
1000
,  // measure 68
0001
1000
0020
0000
0000
0030
0000
1001
,  // measure 69
0000
1010
0000
1001
0000
0101
0000
0011
,  // measure 70
0000
0010
0200
0000
1300
0001
0100
0010
,  // measure 71
0000
2000
0000
3002
0000
0203
0000
0310
,  // measure 72
1000
0001
0010
0000
0010
0100
0001
0200
,  // measure 73
0000
0302
0000
0203
0000
0310
0000
0011
,  // measure 74
0000
1001
0000
0201
0000
0300
0000
0120
,  // measure 75
0000
1000
0001
0100
,  // measure 76
0001
0000
0100
0000
1000
0000
0100
0130
,  // measure 77
0001
0010
0001
1000
0001
0100
0010
1000
,  // measure 78
0001
0010
0001
1000
0100
1000
0001
1000
,  // measure 79
0000
0001
0010
0000
0100
1000
0001
0000
,  // measure 80
0010
0100
0010
0000
0100
1000
0002
0000
,  // measure 81
0203
0000
0320
0000
2030
0000
3001
0010
,  // measure 82
0001
1000
0001
0000
0100
0010
1000
0001
,  // measure 83
0000
0010
0100
0000
1000
0001
0100
0000
,  // measure 84
0010
1000
0020
0000
0000
0001
0000
1030
,  // measure 85
0001
0010
0100
1000
0001
0100
0010
1000
,  // measure 86
0000
0101
0000
1000
0010
0100
0001
0100
,  // measure 87
0000
0010
0100
0000
0100
0001
0010
0000
,  // measure 88
0100
1000
0010
0000
0010
0001
0200
0000
,  // measure 89
0302
0000
0023
0000
0032
0000
0103
0010
,  // measure 90
1000
0001
0010
0001
0100
1000
0100
0010
,  // measure 91
0000
1000
0010
0000
1000
0001
0010
0000
,  // measure 92
0010
0001
1000
0100
0000
0100
0010
0011
,  // measure 93
0000
0101
0000
1000
0010
0001
0010
0100
,  // measure 94
1000
0100
0001
2000
0000
3001
0000
0110
,  // measure 95
0000
1100
0000
0100
0010
0011
0000
0001
,  // measure 96
1000
1100
0000
0010
0100
0101
0000
0010
,  // measure 97
1000
1001
0000
0010
0100
0110
0000
1000
,  // measure 98
0001
0011
0000
0010
0001
1001
0000
0100
,  // measure 99
0001
1001
0110
1001
,  // measure 100
0100
1000
0000
0110
0000
1001
0000
1000
,  // measure 101
0000
0000
0001
0010
0001
0000
0000
0000
1000
0100
1000
0000
0000
0000
0001
0010
,  // measure 102
0001
0000
0000
0000
0100
0010
0100
0000
0001
0010
0001
0000
0000
0000
2002
0000
,  // measure 103
0000
0000
0000
0000
,  // measure 104
0000
3003
0000
0000
;
