#TITLE:Gekkou;
#SUBTITLE:;
#ARTIST:Tatsh feat. Kanako Hoshino;
#TITLETRANSLIT:;
#SUBTITLETRANSLIT:;
#ARTISTTRANSLIT:;
#CREDIT:;
#BANNER:;
#BACKGROUND:;
#LYRICSPATH:;
#CDTITLE:;
#MUSIC:Gekkou.ogg;
#OFFSET:1.080;
#SAMPLESTART:100.050;
#SAMPLELENGTH:12.000;
#SELECTABLE:YES;
#BPMS:0.000=155.000;
#STOPS:;
#BGCHANGES:;

//---------------dance-single - ----------------
#NOTES:
     dance-single:
     :
     Hard:
     14:
     0.781,0.847,0.287,0.383,0.553: // measure 1
0000
0000
0000
0000
,  // measure 2
1001
0000
0000
0000
0001
0000
0001
0010
0000
0010
0001
0000
0001
1000
0010
0100
,  // measure 3
0010
1000
0100
0010
0100
0000
1000
0010
0000
0010
0001
0000
0010
0100
0010
1000
,  // measure 4
0010
0001
0010
0100
0010
0000
0010
0100
0000
0100
0001
0000
0001
1000
0010
1000
,  // measure 5
0001
0010
0100
1000
0001
0000
0010
0100
0000
0010
1000
0000
1000
0010
0100
0001
,  // measure 6
0100
0010
0100
1000
0100
0000
0001
0100
0000
0100
1000
0000
1000
0001
0010
0001
,  // measure 7
1000
0100
0010
0100
1000
0000
0010
0100
0000
0001
0010
0000
0100
0010
0001
0010
,  // measure 8
0100
0010
1000
0010
0100
0000
1000
0010
0000
0100
0001
0000
0001
0010
0100
1000
,  // measure 9
0100
0010
0001
0100
1000
0000
0100
0001
0000
0001
0010
0000
0001
0010
0001
1000
,  // measure 10
0100
1000
0001
0010
0001
0000
0000
0000
0010
0000
0001
0000
0000
0000
0001
0000
,  // measure 11
0100
0001
0020
0000
0032
0000
0023
0000
,  // measure 12
0130
2000
0000
3001
0020
0000
1000
0000
,  // measure 13
0001
0000
0100
0030
0011
0000
1100
0000
,  // measure 14
0010
0001
1000
0000
1000
0001
0000
0010
,  // measure 15
0001
1000
0001
0000
0200
0000
0302
0000
,  // measure 16
0023
0000
0032
0000
1000
0000
0100
0003
,  // measure 17
0100
0000
0002
0000
0000
0000
0013
0000
0100
0000
0000
0000
0100
1000
0001
1000
,  // measure 18
0001
0010
0001
1000
0001
0000
0000
0000
0001
0000
0100
0000
0100
0010
0000
0001
,  // measure 19
0010
0000
1000
0000
0001
0000
0100
0000
0001
0000
1000
0000
0100
1000
0000
0001
,  // measure 20
0010
0000
1000
0000
0001
0000
0100
0000
1000
0000
0100
0000
1000
0010
0000
0100
,  // measure 21
1000
0000
0001
0000
0010
0000
0100
0000
0010
0000
1000
0000
0100
0010
0000
0001
,  // measure 22
0000
0000
0001
0000
0002
0000
0000
0023
0000
0000
2030
0000
3020
0000
0030
0002
,  // measure 23
0000
0000
0023
0000
0230
0000
0300
0020
0000
0000
0032
0000
1000
0000
0000
0000
,  // measure 24
0103
0001
1000
0100
0000
0100
0000
1000
,  // measure 25
0100
0010
0100
0001
0000
2002
0000
0000
,  // measure 26
3003
0000
0000
0000
1010
0000
0000
0110
0000
0000
1001
0000
0000
0000
0101
0000
,  // measure 27
1001
0000
1001
0010
1000
0100
0000
0001
,  // measure 28
0100
0000
0000
0000
1000
0000
0001
0000
0010
0000
0100
0000
0001
0000
0000
0100
,  // measure 29
0001
0100
0010
0001
1000
0001
0000
1001
,  // measure 30
0000
0000
1010
0000
0000
0000
0010
0000
0010
0000
0000
0000
1000
0000
0000
0100
,  // measure 31
0010
0001
1000
0000
0110
0000
1001
0010
,  // measure 32
1000
0000
0001
0000
0010
0000
0001
0000
0001
0000
0010
0000
0100
0000
0000
1000
,  // measure 33
0010
0100
0001
0020
0000
2030
0000
3002
,  // measure 34
0000
1003
0200
0000
0000
0301
0100
0000
,  // measure 35
1001
0000
1000
0100
0001
0100
1000
0010
,  // measure 36
0100
0000
0000
0100
1000
0000
0001
0000
1000
0000
0100
0000
0001
0000
0010
0000
,  // measure 37
1000
0000
0000
1000
0010
0000
0001
0000
1000
0000
0100
0000
0110
0000
0001
0000
,  // measure 38
0010
0001
0011
0100
1000
0100
1100
0010
,  // measure 39
1001
0001
0110
0010
1000
0001
0010
0100
,  // measure 40
0010
0000
0000
0010
0001
0000
0100
0000
1000
0000
0001
0000
0010
0000
1000
0000
,  // measure 41
0001
0000
0000
0001
0010
0000
0100
0000
0010
0000
0001
0000
0011
0000
0100
0000
,  // measure 42
1100
0010
1010
0100
0001
0010
0011
0100
,  // measure 43
1000
0001
0011
0100
0001
0010
1010
0001
,  // measure 44
1000
0001
0101
0100
1000
0001
0010
0100
,  // measure 45
0101
0001
0110
0010
0100
0010
1100
0001
,  // measure 46
0100
0010
2200
0000
0000
0000
0000
0000
,  // measure 47
3300
0000
2000
0010
3010
2000
0100
3100
,  // measure 48
2000
0000
0001
0000
3001
0000
1000
0000
0010
0000
0001
0000
0010
0000
0000
0010
,  // measure 49
0100
0001
1000
0100
0000
0200
0000
0320
,  // measure 50
0000
0000
0032
0000
0000
0000
0000
0000
0013
0000
0000
0000
0100
0000
0010
0100
,  // measure 51
0000
0001
0100
1000
0001
1000
0000
0010
,  // measure 52
0100
0001
2000
0000
0000
0001
3001
0000
,  // measure 53
0000
1000
0001
0020
0000
0230
0000
0302
,  // measure 54
0000
0000
0103
0000
0100
0000
0000
0000
0000
0000
1000
0000
1000
0000
0010
0100
,  // measure 55
0010
0000
0110
0000
0001
0001
0000
0010
,  // measure 56
0010
0000
0000
0000
0100
0000
0000
0000
1000
0000
0100
0000
0001
0000
0000
0100
,  // measure 57
0010
0100
0001
0100
1000
0020
0000
0031
,  // measure 58
0000
0000
0010
0000
2000
0000
0000
0000
3200
0000
0000
0000
2300
0000
0000
3010
,  // measure 59
0001
0010
0001
0000
1001
0000
1000
0100
,  // measure 60
0001
0000
1000
0000
0001
0000
0000
0000
0010
0000
0010
0000
1000
0000
0000
1000
,  // measure 61
0000
0010
0010
0002
0000
0023
0000
0130
,  // measure 62
0001
0000
0100
0000
0010
0000
0000
0001
0100
0000
0001
0000
0010
0000
0000
0100
,  // measure 63
0010
0000
0100
0000
1000
0000
0010
0100
0000
0100
0010
0000
0010
1000
0001
0010
,  // measure 64
0100
0010
0001
0100
0010
0000
0010
0100
0000
0100
1000
0000
1000
0100
0010
0001
,  // measure 65
0010
0100
0001
0100
1000
0000
1000
0100
0000
0100
0001
0000
0001
0010
0001
1000
,  // measure 66
0001
0100
0010
1000
0001
0000
1000
0100
0000
0100
0010
0000
0010
0100
0010
0001
,  // measure 67
0010
0100
1000
0010
0100
0000
0001
0010
0000
0010
1000
0000
1000
0010
0001
0100
,  // measure 68
1000
0100
0001
0010
0100
0000
0100
1000
0000
1000
0100
0000
0010
0001
0010
0100
,  // measure 69
0010
1000
0010
0100
0010
0000
0001
0010
0000
0100
0010
0000
0001
0100
0010
0001
,  // measure 70
0010
0100
1000
0100
1000
0000
1000
0100
0000
0010
0001
0000
0010
0100
0001
0010
,  // measure 71
1000
0010
0001
0100
0020
0000
0000
0000
0000
0000
0000
0000
0000
0000
0000
0000
,  // measure 72
0000
0000
0000
0000
,  // measure 73
0030
0000
0000
0000
;
