#TITLE:Flip Flap;
#SUBTITLE:;
#ARTIST:Kors K;
#TITLETRANSLIT:;
#SUBTITLETRANSLIT:;
#ARTISTTRANSLIT:;
#CREDIT:;
#BANNER:;
#BACKGROUND:;
#LYRICSPATH:;
#CDTITLE:;
#MUSIC:11.kors k - Flip Flap.ogg;
#OFFSET:-0.380;
#SAMPLESTART:88.210;
#SAMPLELENGTH:12.000;
#SELECTABLE:YES;
#BPMS:0.000=175.000;
#STOPS:;
#BGCHANGES:;

//---------------dance-single - ----------------
#NOTES:
     dance-single:
     :
     Hard:
     13:
     0.670,0.874,0.629,0.009,0.804: // measure 1
0000
0000
0000
0000
,  // measure 2
0000
0000
0000
0000
,  // measure 3
0000
0000
0000
0000
,  // measure 4
0000
0000
0000
0000
,  // measure 5
0000
0000
0000
0000
,  // measure 6
0000
0000
0000
0000
,  // measure 7
0000
0000
0000
0000
,  // measure 8
0000
0000
0000
0000
,  // measure 9
1000
0000
0000
0001
0000
0000
0010
0000
0100
0000
0000
0000
,  // measure 10
0100
0000
0000
0010
0000
0001
1000
0000
0000
0100
0000
0000
,  // measure 11
0001
0000
0000
0100
0000
0000
1000
0000
0001
0000
0000
0000
,  // measure 12
1000
0000
0001
0010
0000
0100
0010
0000
0000
0001
0000
0010
,  // measure 13
0100
0000
0000
1000
0000
0000
0100
0000
0010
0000
0000
0000
,  // measure 14
0001
0000
0000
0100
0000
0001
0010
0000
0000
0100
0000
0000
,  // measure 15
1000
0000
0000
0001
0000
0000
0010
0000
0001
0000
0000
0000
,  // measure 16
1001
0101
0110
1100
,  // measure 17
1001
0000
0000
1001
0000
0000
1000
0100
0010
0001
0000
0010
,  // measure 18
0100
0000
0000
1000
0000
0000
1100
0000
0000
1000
0000
0001
,  // measure 19
0010
0000
0000
0010
0000
0100
0010
0001
0010
0100
0000
1000
,  // measure 20
0001
0000
0010
0100
0000
1000
0001
0000
0000
0010
0000
0000
,  // measure 21
1001
0000
0000
1001
0000
0000
0001
0010
0100
1000
0000
0100
,  // measure 22
0010
0000
0000
0110
0000
0000
0110
0000
0000
0001
0000
0001
,  // measure 23
0010
0000
0000
0010
0000
0010
0001
1000
0001
0010
0000
0001
,  // measure 24
0010
0000
0010
0100
0000
1000
0001
0000
0000
0010
0000
0000
,  // measure 25
0110
0000
0000
1000
0010
0100
0001
0000
0000
1000
0000
0000
,  // measure 26
1001
0000
0001
0100
0010
0100
0001
0000
0000
0010
0000
0000
,  // measure 27
0110
0000
0000
1001
0000
0010
0100
1000
0100
0010
0000
0100
,  // measure 28
0001
0000
0100
0010
0000
0100
1000
0000
0000
0011
0000
0000
,  // measure 29
1000
0000
0000
0001
0100
0010
1000
0000
0000
1000
0000
0000
,  // measure 30
1001
0000
0010
0100
0010
0001
0010
0000
0000
1001
0000
0000
,  // measure 31
0110
0000
0000
1000
0000
0001
0010
0001
1000
0001
0000
0010
,  // measure 32
0100
0000
0100
0010
0000
0010
0100
0000
0000
1001
0000
0000
,  // measure 33
1000
0000
0001
0010
0000
0001
0100
0000
0001
1000
0000
0100
,  // measure 34
1000
1001
0110
1001
,  // measure 35
0010
0000
1000
0010
0000
1000
0100
0000
1000
0001
0000
0010
,  // measure 36
0001
1001
0110
1001
,  // measure 37
0100
0000
0100
0010
0000
0100
1000
0000
0100
0001
0000
0100
,  // measure 38
1000
0000
0001
0010
0000
0000
1010
0000
0000
1001
0000
0000
,  // measure 39
0011
0000
0010
0100
0000
0010
0001
0000
1000
0100
0000
0010
,  // measure 40
1000
0000
0010
0001
0000
0010
0100
1000
0010
1000
0000
0000
,  // measure 41
1001
0000
0100
0010
0000
0010
1000
0000
1000
0010
0000
0010
,  // measure 42
0100
1100
0110
0101
,  // measure 43
0010
0000
1000
0010
0000
0001
0010
0000
1000
0100
0000
0001
,  // measure 44
0100
0110
1100
1001
,  // measure 45
0001
0000
0001
0010
0000
0010
0100
0000
0010
0001
0000
0100
,  // measure 46
0001
0110
0101
1001
,  // measure 47
0100
0001
0010
0100
0010
0001
1000
0010
0100
0010
1000
0001
,  // measure 48
0100
0011
1100
0011
,  // measure 49
1100
0000
0000
0100
0000
0000
0100
0000
1000
0000
0000
0000
,  // measure 50
0100
0000
0000
0010
0000
0100
1000
0000
0000
0001
0000
0000
,  // measure 51
0010
0000
0000
0010
0000
0000
0100
0000
0001
0000
0000
0000
,  // measure 52
0100
0000
1000
0010
0000
0100
0001
0000
0000
0001
0000
0010
,  // measure 53
0100
0000
0000
1000
0000
0000
0100
0000
1000
0000
0000
0000
,  // measure 54
0001
0000
0000
0010
0000
0100
0010
0000
0000
0001
0000
0000
,  // measure 55
1000
0000
0000
0100
0000
0000
0010
0000
0001
0000
0000
0000
,  // measure 56
0010
0000
0100
0010
0000
0001
1000
0000
0100
0010
0000
0000
,  // measure 57
1001
0000
0000
1001
0000
0000
0100
0001
0010
0100
0000
1000
,  // measure 58
0001
0000
0000
0110
0000
0000
0110
0000
0000
1000
0000
0001
,  // measure 59
0010
0000
0000
0110
0000
0100
0001
0100
0010
0100
0000
1000
,  // measure 60
0001
0000
0001
0010
0000
0010
0100
0000
0000
0110
0000
0000
,  // measure 61
1010
0000
0000
1001
0000
0000
0010
0100
1000
0010
0000
0000
,  // measure 62
1010
0000
0000
1010
0000
0000
0010
1000
0100
0010
0000
0000
,  // measure 63
0001
0010
0100
1000
0100
0001
0100
0010
0001
0100
0010
0100
,  // measure 64
0001
0100
1000
0100
0010
0100
0001
0100
0010
1000
0010
0100
,  // measure 65
0001
0000
0000
0001
0000
0000
0100
0010
1000
0001
0000
0010
,  // measure 66
0100
0000
0000
0110
0000
0000
0101
0000
0000
1001
0000
1000
,  // measure 67
0001
0000
0000
0010
0000
0001
1000
0001
0010
0100
0000
0010
,  // measure 68
1000
0000
0010
0100
0000
1000
0010
0000
0100
0010
0000
0000
,  // measure 69
0101
0000
0000
0101
0000
0000
1000
0001
0010
0100
0000
0010
,  // measure 70
0001
0000
0000
0110
0000
0000
0011
0000
0000
1100
0000
1000
,  // measure 71
0001
0000
0010
0100
0000
0001
0100
0010
0001
1000
0000
1000
,  // measure 72
0100
1000
0010
0001
0010
1000
0100
0010
0001
1000
0010
0100
,  // measure 73
0001
0000
0000
0001
1000
0100
1000
0000
0000
0101
0000
0000
,  // measure 74
1010
0000
0010
0100
0001
0010
0100
0000
0000
1100
0000
0000
,  // measure 75
1010
0000
0000
1000
0000
0100
0010
0100
1000
0001
0000
0001
,  // measure 76
0100
0000
1000
0100
0000
0010
0100
0000
0000
0011
0000
0000
,  // measure 77
0101
0000
0000
0100
0001
0010
0100
0000
0000
0101
0000
0000
,  // measure 78
1100
0000
0010
0100
0001
0100
0010
0000
0000
1001
0000
0000
,  // measure 79
1100
0000
0000
0010
0000
0100
0010
0100
1000
0001
0000
0010
,  // measure 80
0100
0000
0010
0001
0000
0010
0200
0000
0000
0000
0300
0000
,  // measure 81
1001
0000
0000
0000
;
