#TITLE:Clumsy Thoughts;
#SUBTITLE:;
#ARTIST:Nekomata Master feat. SpiLa;
#TITLETRANSLIT:;
#SUBTITLETRANSLIT:;
#ARTISTTRANSLIT:;
#CREDIT:;
#BANNER:;
#BACKGROUND:;
#LYRICSPATH:;
#CDTITLE:;
#MUSIC:01.Clumsy thoughts.ogg;
#OFFSET:-5.640;
#SAMPLESTART:75.030;
#SAMPLELENGTH:12.000;
#SELECTABLE:YES;
#BPMS:0.000=153.000;
#STOPS:;
#BGCHANGES:;

//---------------dance-single - ----------------
#NOTES:
     dance-single:
     :
     Hard:
     12:
     0.599,0.549,0.220,0.138,0.069: // measure 1
0000
0000
0000
0000
,  // measure 2
0010
0100
1000
0100
0010
0001
0010
0100
,  // measure 3
1000
0010
0100
0001
0010
0100
0010
0001
,  // measure 4
0100
1000
0100
0001
0010
1000
0010
0001
,  // measure 5
0000
0001
1000
0100
0000
0100
1000
0010
,  // measure 6
0000
0000
0010
0000
1000
0000
0001
0000
0010
0000
0001
1000
0001
0000
0110
0000
,  // measure 7
1000
0000
0001
0010
0001
0000
0100
0000
0010
0000
1000
0000
0001
0000
0010
0000
,  // measure 8
0000
0001
0100
0001
0100
1000
0100
0010
,  // measure 9
0000
0000
0010
0000
1000
0000
0100
0000
1000
0100
1000
0000
0001
0000
1000
0100
,  // measure 10
1000
0000
0010
0000
0100
0000
0001
0000
1000
0000
0100
0010
0100
0000
1000
0000
,  // measure 11
0001
0000
0010
0100
0010
0000
0001
0000
1000
0000
0010
0000
0100
0000
0001
0000
,  // measure 12
0000
0000
0010
1000
0010
0000
0001
0000
0100
0000
0010
0000
1000
0000
0001
0000
,  // measure 13
0000
0000
1000
0000
0001
0000
0100
0000
0010
0001
0010
0000
1000
0000
0001
0000
,  // measure 14
0101
0000
0000
0000
0000
0000
1000
0000
0100
0000
0001
1000
0001
0000
0100
0000
,  // measure 15
1000
0000
0010
0100
0001
0000
1000
0100
,  // measure 16
0010
0000
0000
0100
0010
0000
0001
0000
1000
0000
0000
0000
0100
0000
0010
0000
,  // measure 17
0100
0000
1000
0001
1000
0000
0001
0010
,  // measure 18
0100
0010
0001
1000
0200
0000
1300
0010
,  // measure 19
0200
0000
0001
0000
0310
1000
0001
0010
,  // measure 20
0100
1100
0101
1100
,  // measure 21
1001
0000
0010
0100
0010
0000
0001
1000
,  // measure 22
0001
0000
0000
0010
0001
0000
1000
0000
0010
0000
0000
0000
0100
0000
0001
0000
,  // measure 23
0010
0000
0010
0001
1000
0000
1000
0010
,  // measure 24
0100
1000
0100
0010
1000
0000
0001
0010
,  // measure 25
0002
0000
0100
0000
1003
0100
0010
0100
,  // measure 26
0001
0110
1001
0110
,  // measure 27
1010
0000
0101
0000
0001
0100
1000
0100
,  // measure 28
0001
0000
0000
0000
0101
0000
0000
0000
0011
0000
0000
0000
0000
0000
0001
0100
,  // measure 29
0001
0010
0001
1000
0010
0100
1000
0100
,  // measure 30
0010
0100
1000
0100
0010
0000
0010
1000
,  // measure 31
0001
0010
0100
1000
0001
0100
0100
0010
,  // measure 32
1000
0000
0000
0000
1001
0000
0000
0000
0110
0000
0000
0000
0000
0000
1000
0100
,  // measure 33
1000
0010
1000
0100
0010
1000
0010
0100
,  // measure 34
1000
0010
0001
0010
1000
0100
0001
0010
,  // measure 35
0001
0100
1000
0100
0010
1000
0001
0100
,  // measure 36
1001
0000
0000
0000
0110
0000
0000
0000
1001
0000
0000
0000
0000
0000
0100
0010
,  // measure 37
0100
0001
1000
0100
0010
0001
1000
0010
,  // measure 38
0100
0001
1000
0010
0100
0000
0001
0010
,  // measure 39
0100
0001
0100
0010
1000
0010
0010
0100
,  // measure 40
1000
0000
0000
0000
0101
0000
0000
0000
1010
0000
0000
0000
0000
0000
0001
1000
,  // measure 41
0001
0100
0010
0100
0001
0010
0100
0001
,  // measure 42
0100
1000
0100
1000
0001
0100
0010
1000
,  // measure 43
0002
0000
1000
0000
0100
0000
0013
0100
,  // measure 44
0010
0000
1100
0000
0110
0000
0011
0001
,  // measure 45
1000
0010
1000
1000
0100
0010
0100
0001
,  // measure 46
0200
0000
0001
0000
1300
0010
0100
0001
,  // measure 47
0000
1001
0000
0010
0100
0001
1000
0100
,  // measure 48
1000
0000
0001
1000
0000
1000
0002
0000
,  // measure 49
1000
0000
0100
0103
0010
1000
0100
0010
,  // measure 50
0200
0001
1000
0010
,  // measure 51
0001
0000
0301
0100
1000
0001
0001
0000
,  // measure 52
0100
0001
1000
0001
0010
0100
0001
0100
,  // measure 53
1000
0010
0010
1000
0001
0011
0011
0010
,  // measure 54
0200
0000
0001
0000
0301
0100
0010
0200
,  // measure 55
0010
0000
1300
0010
0001
0010
1000
0001
,  // measure 56
0001
0000
0001
0010
0000
0010
0002
0000
,  // measure 57
0100
0000
1003
0100
0001
0100
1000
0001
,  // measure 58
0200
0010
1000
0001
,  // measure 59
1000
0000
0301
0010
0001
1000
0001
1000
,  // measure 60
0100
0010
0200
0000
0000
0000
0300
0000
2000
0000
0000
0000
0001
0000
0000
0000
,  // measure 61
3020
0000
0001
0000
0230
0001
0001
0000
,  // measure 62
0301
0100
0001
1000
1000
0010
0001
0010
,  // measure 63
1000
0100
0010
0100
0001
0100
1000
0001
,  // measure 64
0100
0010
0100
1000
0100
0001
1000
0100
,  // measure 65
0000
0100
1000
0010
0000
0010
1000
0001
,  // measure 66
0100
0010
0001
0010
0100
0001
1000
0010
,  // measure 67
0100
0010
0001
0010
1000
0010
0100
1000
,  // measure 68
0100
0010
1000
0100
0010
0100
1000
0001
,  // measure 69
0000
0001
0100
0010
0000
0010
0100
0001
,  // measure 70
1000
0000
0001
0000
1000
0000
0001
0000
1000
0000
0001
0010
0001
0000
2002
0000
,  // measure 71
0000
0000
0000
0000
,  // measure 72
3003
0000
0000
0000
;
