#TITLE:Byakuya Gentou;
#SUBTITLE:;
#ARTIST:Nekomata Master;
#TITLETRANSLIT:;
#SUBTITLETRANSLIT:;
#ARTISTTRANSLIT:;
#CREDIT:;
#BANNER:;
#BACKGROUND:;
#LYRICSPATH:;
#CDTITLE:;
#MUSIC:Byakuya Gentou.ogg;
#OFFSET:-0.080;
#SAMPLESTART:71.370;
#SAMPLELENGTH:12.000;
#SELECTABLE:YES;
#BPMS:0.000=128.000;
#STOPS:;
#BGCHANGES:;

//---------------dance-single - ----------------
#NOTES:
     dance-single:
     :
     Hard:
     12:
     0.610,0.615,0.235,0.462,0.409: // measure 1
0000
0000
0000
0000
,  // measure 2
0000
0000
0000
0000
,  // measure 3
1000
0100
0001
0010
,  // measure 4
1000
0000
0000
0110
0000
0000
0000
0010
0100
1000
0000
0000
,  // measure 5
0000
0000
0001
0010
0001
0000
0000
0000
1000
0000
0000
0000
0100
0000
0000
0000
,  // measure 6
0010
0000
0000
0000
0100
0000
0000
0000
0000
0000
0100
0010
0100
0000
0000
0000
,  // measure 7
2000
3200
0320
0032
,  // measure 8
2003
0000
0000
3020
0000
0000
0000
1030
0100
1000
0000
0000
,  // measure 9
0100
0001
1000
0010
,  // measure 10
1000
0000
0001
0000
1000
0100
2000
0000
0000
0000
0000
0000
0000
0000
0000
0000
,  // measure 11
3000
0000
0000
0000
0010
0000
0000
0000
0100
0000
0000
0000
0001
0000
0000
0010
,  // measure 12
0100
0100
2001
0000
3020
0000
0230
0000
,  // measure 13
0302
0000
0000
0000
2003
0000
0000
3001
0000
0000
1000
0100
1000
0000
0001
0000
,  // measure 14
1000
0100
1000
0000
1100
0000
0000
0010
0000
0000
0010
0000
0100
0000
0000
0100
,  // measure 15
0000
0000
0100
0000
0001
0000
0000
0001
0000
0000
0001
0010
0001
0000
1000
0000
,  // measure 16
0001
0010
0001
0000
0021
0000
0000
0000
0230
0000
0000
0000
0302
0000
0000
0000
,  // measure 17
0203
0000
0000
0000
2300
0000
0000
3001
0000
0000
0001
0100
0001
0000
0010
0000
,  // measure 18
0001
0100
0001
0000
0011
0000
0000
0010
0000
0000
0010
0000
0100
0000
0000
0100
,  // measure 19
0000
0000
0100
0000
1000
0000
0001
0000
0100
0000
0001
1000
0001
0000
0100
0000
,  // measure 20
0001
1000
0001
0000
1001
0000
0010
0000
0100
0000
0001
0010
0001
0000
1000
0000
,  // measure 21
0001
0000
1000
0000
0100
0000
0010
0000
0001
0000
0010
0100
0010
0000
0001
1000
,  // measure 22
0001
0000
0010
0000
0200
0000
0000
0000
0310
0000
0001
0010
0001
0000
0100
0000
,  // measure 23
0010
0100
0010
0000
0100
0000
0001
0000
1000
0000
0010
0001
0010
0000
1000
0001
,  // measure 24
1000
0010
0001
0010
0100
1000
0100
0001
,  // measure 25
0010
0000
1000
0000
0020
0000
0000
0000
0130
0000
1000
0100
1000
0000
0001
0100
,  // measure 26
0010
0000
0100
0000
0020
0000
0000
0000
1030
0000
0100
0010
0100
0000
0001
0000
,  // measure 27
0100
1000
0100
0000
2000
0000
0000
0000
0000
0000
0000
0000
0000
0000
3100
0010
,  // measure 28
0100
0010
0001
1000
0001
0010
0100
1000
,  // measure 29
0010
0000
1000
0000
0100
0000
0000
0010
0000
0001
0100
0000
0110
0000
0000
1000
,  // measure 30
0000
0100
0010
0000
1010
0000
0000
0010
0000
1000
0010
0100
0010
0000
0110
0000
,  // measure 31
0010
0100
0010
0000
0110
0000
0000
0010
0000
0100
0001
0000
0011
0000
0000
0100
,  // measure 32
0000
0010
1000
0000
1100
0000
0000
0001
0000
0100
0001
1000
0001
0000
1001
0000
,  // measure 33
0100
0010
0100
0010
0200
0000
0000
0000
0301
0000
1000
0100
2000
0000
0000
0000
,  // measure 34
3001
0000
0010
0100
0010
0000
0010
0001
0100
0000
0010
0100
0010
0000
0110
0000
,  // measure 35
0100
0010
0100
0000
0110
0000
0000
0100
0000
0000
1000
0100
2000
0000
0000
0000
,  // measure 36
3010
0000
1000
0001
1000
0000
1000
0001
1000
0000
0001
1000
0001
0000
0001
0000
,  // measure 37
0100
0010
1001
0000
0000
1001
1001
0000
,  // measure 38
0000
1001
0110
0000
0110
0000
1001
0010
,  // measure 39
0100
0000
0001
0000
2000
0000
0000
0000
3100
0000
0100
0010
0001
0000
0100
0000
,  // measure 40
1000
0000
0100
0000
0002
0000
0000
0000
0000
0000
1003
0100
1000
0000
0001
0000
,  // measure 41
1000
0000
0010
0100
0020
0000
0000
0000
0000
0000
1030
0100
1000
0000
0001
0100
,  // measure 42
0010
1000
2200
0000
0000
3300
0000
0000
,  // measure 43
1000
0100
1000
0100
2000
0000
0000
0000
3001
0000
0100
0010
0100
0000
0001
0000
,  // measure 44
1000
0000
0010
0000
2000
0000
0000
0000
0000
0000
3001
0010
0001
0000
1000
0000
,  // measure 45
0100
0001
0200
0000
2300
0000
3002
0000
,  // measure 46
2003
0000
0000
0000
3002
0000
0010
0000
0010
0000
0013
0100
0010
0000
0010
0000
,  // measure 47
0010
0000
0001
0010
0002
0000
0000
0000
1003
0000
0100
0010
0100
0000
1000
0000
,  // measure 48
0001
0000
0100
0000
0020
0000
0000
0000
0000
0000
0130
1000
0100
0000
0001
0000
,  // measure 49
0010
0000
0100
1000
0200
0000
0000
0000
0000
0000
1300
0010
1000
0000
1000
0100
,  // measure 50
1000
0001
0020
0000
0000
0000
0000
0000
,  // measure 51
0031
0100
0001
0100
0010
0000
0000
0000
0000
0000
0010
0000
0001
0000
0010
0000
,  // measure 52
0100
0000
0010
0000
0002
0000
0000
0000
0000
0000
0013
1000
0010
0000
1000
0000
,  // measure 53
0010
0100
2000
0000
3200
0000
0320
0000
,  // measure 54
0230
0000
0000
0000
2300
0000
0100
0000
0100
0000
3100
0010
0200
0000
0010
0000
,  // measure 55
0010
0310
1002
0000
0203
0000
0320
0000
,  // measure 56
2030
0000
0000
0000
3002
0000
0000
1003
0000
0000
1000
0100
1000
0000
0001
0000
,  // measure 57
0100
0010
1000
0000
0100
0000
0000
0100
0010
0000
0001
0000
0001
0000
0000
0001
,  // measure 58
0010
0000
0100
0000
0100
0000
0000
1000
0010
0000
0010
0100
0010
0000
0110
0000
,  // measure 59
0010
0100
0010
0000
0210
0000
0000
0000
0320
0000
0000
0000
2030
0000
0000
0000
,  // measure 60
3002
0000
0000
0000
2003
0000
0000
3001
0000
0000
0100
0010
0100
0000
1001
0000
,  // measure 61
1000
0001
1000
0000
0110
0000
0000
0100
0010
0000
0000
0010
0100
0000
0000
0100
,  // measure 62
0001
0000
0000
0001
1000
0000
0010
0000
0100
0000
0001
0010
0001
0000
1001
0000
,  // measure 63
0001
0010
0001
0000
0000
0000
0000
0000
0000
0000
0000
0000
0000
0000
0000
0000
,  // measure 64
1000
0100
0010
0100
1000
0000
0000
0000
0000
0000
0000
0000
0000
0000
0000
0000
;
