#TITLE:Blocks;
#SUBTITLE:;
#ARTIST:Sparker;
#TITLETRANSLIT:;
#SUBTITLETRANSLIT:;
#ARTISTTRANSLIT:;
#CREDIT:;
#BANNER:;
#BACKGROUND:;
#LYRICSPATH:;
#CDTITLE:;
#MUSIC:72_-_blocks.ogg;
#OFFSET:-0.320;
#SAMPLESTART:0.050;
#SAMPLELENGTH:12.000;
#SELECTABLE:YES;
#BPMS:0.000=140.660,28.000=140.900,196.000=141.000;
#STOPS:;
#BGCHANGES:;

//---------------dance-single - ----------------
#NOTES:
     dance-single:
     :
     Hard:
     12:
     0.612,0.671,0.088,0.167,0.397: // measure 1
0000
0000
0000
0000
,  // measure 2
0000
0000
0000
0000
,  // measure 3
0000
0000
0000
0000
,  // measure 4
0000
0000
0000
0000
0000
1000
1000
0000
,  // measure 5
0001
0001
0100
0100
,  // measure 6
0010
0010
1000
1000
,  // measure 7
0100
0001
1000
0010
,  // measure 8
0010
1000
1000
0100
0001
0100
1000
0001
,  // measure 9
0010
0000
0010
0001
0100
1000
0100
0001
,  // measure 10
0010
0000
0010
0001
0010
1000
0010
0100
,  // measure 11
1000
0000
1000
0010
0100
0010
1000
0001
,  // measure 12
0100
0000
0100
0010
0100
0001
1000
0001
,  // measure 13
0100
0000
0100
0001
0100
0010
1000
0001
,  // measure 14
0010
0000
0010
0100
1000
0001
1000
0010
,  // measure 15
0100
0000
0100
0001
0010
0100
0010
0001
,  // measure 16
0100
0010
0010
0100
0001
0010
0001
1000
,  // measure 17
0001
0000
0001
0100
1000
0100
0010
0100
,  // measure 18
0001
0010
1000
0010
0100
0001
0100
0010
,  // measure 19
1000
0010
0001
0100
0010
1000
0100
0010
,  // measure 20
1000
0001
0100
0010
0001
0010
0010
0100
,  // measure 21
0010
0001
1000
0010
0100
0001
0010
0100
,  // measure 22
1000
0001
0100
0010
1000
0010
0100
0001
,  // measure 23
1000
0100
0010
0100
1000
0010
0100
0001
,  // measure 24
1000
0010
0010
1000
0010
0001
0010
0100
,  // measure 25
1000
1000
0100
0010
1000
0010
0100
0010
,  // measure 26
0001
0010
1000
0100
1000
0010
0100
0010
,  // measure 27
0100
0001
0010
0100
0010
1000
0010
0100
,  // measure 28
0001
0100
0010
1000
0010
0001
0100
0010
,  // measure 29
1000
0001
0100
0010
0100
0001
0010
0100
,  // measure 30
0010
1000
0001
0100
0010
0100
0001
1000
,  // measure 31
0010
0100
0010
0001
0100
1000
0100
0001
,  // measure 32
0010
1000
0010
0001
0100
0001
1000
0001
,  // measure 33
0002
0000
0000
0000
,  // measure 34
1003
0000
0000
0000
0010
1000
0010
0100
0000
1000
0100
0000
0010
0000
0100
0000
,  // measure 35
0001
0000
0000
0000
0010
0100
0010
0100
0000
1000
0100
0000
1000
0000
0100
0000
,  // measure 36
0010
0000
0000
0000
0010
0100
0010
0001
0000
0010
0100
0000
1000
0000
0010
0000
,  // measure 37
0100
0000
0000
0000
0100
0001
0100
0001
0000
0010
0100
0000
0001
0000
0100
0000
,  // measure 38
1000
0000
0000
0000
0001
0010
0001
1000
0000
0100
0010
0000
0001
0000
0100
0000
,  // measure 39
0010
0000
0000
0000
0010
1000
0010
1000
0000
0100
0001
0000
0100
0000
1000
0000
,  // measure 40
0010
0000
0000
0000
1000
0100
1000
0010
0000
1000
0001
0000
0100
0000
0010
0000
,  // measure 41
1000
0000
0000
0000
0100
0010
0100
0010
0000
0001
0010
0000
0100
0000
0010
0000
,  // measure 42
1001
0000
1000
0000
0100
0010
0100
0010
0000
0001
0010
0001
0010
0000
0100
0000
,  // measure 43
0001
0000
0100
0000
1000
0100
1000
0010
0000
0010
0100
1000
0100
0000
0001
0000
,  // measure 44
0010
0000
0100
0000
1000
0010
1000
0010
0000
0100
0001
0100
0001
0000
0100
0000
,  // measure 45
1000
0000
0100
0000
0001
0100
0010
0100
0000
0010
0100
0001
1000
0000
0100
0000
,  // measure 46
0010
0000
0100
0000
0001
0100
0001
0100
0000
1000
0010
1000
0010
0000
0001
0000
,  // measure 47
0010
0000
1000
0000
1000
0100
1000
0001
0000
0001
1000
0100
1000
0000
0010
0000
,  // measure 48
0100
0000
0001
0000
1000
0100
1000
0100
0000
1000
0010
1000
0010
0000
1000
0000
,  // measure 49
0100
0000
0010
0000
0001
0010
0001
0100
0000
0100
0001
0010
0001
0000
0100
0000
,  // measure 50
1001
0000
0000
0100
0000
0000
0000
0000
0000
0000
0000
0000
0000
0000
0000
0000
,  // measure 51
2001
0000
0000
0020
0000
0000
3030
0000
1002
0000
0000
0200
0000
0000
0303
0000
,  // measure 52
0210
0000
0000
2000
0000
0000
3300
0000
0120
0000
0000
0002
0000
0000
0033
0000
,  // measure 53
0021
0000
0000
2000
0000
0000
3030
0000
1200
0000
0000
0002
0000
0000
0303
0000
,  // measure 54
0201
0000
0000
0000
0000
0000
0000
0000
0000
1000
0000
0000
0000
0000
0000
0000
0000
0000
0300
0000
0001
0000
0000
0000
1000
0000
0000
0000
0100
0000
0000
0000
0010
0000
0000
0000
0200
0000
0000
0000
0000
0000
0300
0000
0000
0000
0000
0000
,  // measure 55
1000
0100
0010
0100
1000
0001
0010
0100
0010
0002
0000
0000
,  // measure 56
1003
0100
0010
0100
1000
0001
0010
0100
0010
0001
1000
0010
,  // measure 57
0200
0000
0000
0000
,  // measure 58
0300
0000
0000
0000
;
