#TITLE:Bitter Chocolate Striker;
#SUBTITLE:;
#ARTIST:LED-G;
#TITLETRANSLIT:;
#SUBTITLETRANSLIT:;
#ARTISTTRANSLIT:;
#CREDIT:;
#BANNER:Bitter Chocolate Striker banner.jpg;
#BACKGROUND:;
#LYRICSPATH:;
#CDTITLE:;
#MUSIC:05_BITTER_CHOCOLATE_STRIKER.ogg;
#OFFSET:-1.800;
#SAMPLESTART:38.210;
#SAMPLELENGTH:12.000;
#SELECTABLE:YES;
#BPMS:0.000=165.000;
#STOPS:;
#BGCHANGES:;

//---------------dance-single - ----------------
#NOTES:
     dance-single:
     :
     Hard:
     14:
     0.696,0.792,0.157,0.172,1.000: // measure 1
0000
0000
0000
0000
,  // measure 2
0000
0000
0000
0000
,  // measure 3
0000
0000
0000
0000
,  // measure 4
2000
0000
3020
0000
,  // measure 5
0230
0000
0320
0000
,  // measure 6
2030
0000
3002
0000
,  // measure 7
0023
0000
0032
0000
,  // measure 8
0013
0000
0010
0001
0000
0001
0100
0000
0100
0010
0000
0010
,  // measure 9
1000
0000
1000
0100
0000
0100
0001
0000
0001
0100
0000
0100
,  // measure 10
0010
0000
0010
1000
0000
1000
0010
0000
0010
0001
0000
0001
,  // measure 11
1000
0000
1000
0010
0000
0010
0100
0000
0100
0001
1000
0100
,  // measure 12
0010
0000
0010
0001
0000
0001
0010
0000
0010
0001
0000
0001
,  // measure 13
0100
0000
0100
1000
0000
1000
0100
0000
0100
0001
0000
0001
,  // measure 14
0010
0000
0010
0001
0000
0000
0100
0010
1000
0001
0000
0001
,  // measure 15
1000
0000
1000
0010
0000
0010
0100
0000
0100
0001
0000
0001
,  // measure 16
0010
0000
0010
0100
0000
0100
1000
0000
1000
0010
0000
0010
,  // measure 17
0100
0000
0100
0001
0000
0001
0010
0000
0010
0001
0000
0001
,  // measure 18
0010
0000
0010
1000
0000
1000
0010
0000
0010
0001
0000
1000
,  // measure 19
0100
1000
0100
0001
0000
0101
0000
0000
0000
0001
0100
1000
,  // measure 20
0010
0000
1000
0001
0000
1000
0100
0000
1000
0010
0000
0010
,  // measure 21
0001
0000
0010
1000
0000
0010
0100
0000
0100
1000
0000
0100
,  // measure 22
0010
0000
0100
0001
0000
0001
1000
0010
0100
0001
0000
1000
,  // measure 23
0100
0000
1000
0020
0030
0001
0020
0030
0100
0020
0030
1000
,  // measure 24
0020
0000
0000
0000
,  // measure 25
0000
0000
2030
0000
0000
0000
0000
0000
0000
3000
0000
0000
,  // measure 26
1001
0000
0001
1000
0001
0100
0010
0000
0010
1000
0000
1100
,  // measure 27
0000
0000
0010
0100
0000
0001
0010
0000
0010
1000
0000
0010
,  // measure 28
0100
0000
1000
0001
0100
0010
1000
0001
0010
0100
0000
0001
,  // measure 29
0010
0000
1000
0100
0000
0001
0010
0000
1000
0100
0000
0100
,  // measure 30
1000
0000
0010
0100
0001
0010
0100
0000
0100
0001
0000
0101
,  // measure 31
0000
0000
0001
0100
0000
0100
1000
0000
1000
0010
0000
0010
,  // measure 32
0001
0000
0001
0010
1000
0001
0010
1000
0001
0100
1000
0010
,  // measure 33
0100
0000
0010
0001
0010
0100
0001
0000
0010
0100
0000
0001
,  // measure 34
0100
0000
1000
0010
0001
0010
0100
0000
0001
1000
0010
0100
,  // measure 35
0010
0000
1000
0010
0100
0010
1000
0000
0001
0010
0000
0100
,  // measure 36
0010
0001
0100
1000
0100
0001
0010
0000
0100
0010
0000
0001
,  // measure 37
0100
0000
0010
0001
0000
0010
1000
0000
0100
0010
0000
0100
,  // measure 38
1000
0000
0100
0010
0001
0010
0100
0100
1000
0001
0000
0100
,  // measure 39
0001
0000
0100
0010
1000
0001
0010
0000
0010
0100
0000
0001
,  // measure 40
0100
0000
0010
0001
1000
0010
0100
0000
0010
1000
0000
0100
,  // measure 41
0001
0000
1000
0100
0000
0100
0001
0000
0001
0100
0000
0010
,  // measure 42
1000
0000
0001
0010
0001
1000
0001
0000
0100
0010
0000
0110
,  // measure 43
0000
0000
0100
0010
0000
0100
1000
0000
0001
0100
0000
0001
,  // measure 44
1000
0000
0100
1000
0010
0100
1000
0100
0001
0010
1000
0010
,  // measure 45
0001
0000
1000
0001
0000
0100
0010
0000
1000
0001
0000
0100
,  // measure 46
0010
0000
1000
0010
0100
0010
1000
0000
0001
0010
0000
0011
,  // measure 47
0000
0000
0010
0001
0000
0100
0010
0000
1000
0100
0000
0010
,  // measure 48
0100
0000
1000
0001
0100
0010
1000
0001
0010
0100
0010
0001
,  // measure 49
0100
0000
0100
0010
1000
0001
0010
0000
0100
1000
0000
0100
,  // measure 50
0020
0000
0000
0000
,  // measure 51
0000
0000
0000
0000
,  // measure 52
2030
0000
0000
0000
,  // measure 53
3002
0000
0000
0000
,  // measure 54
0203
0000
0000
0000
,  // measure 55
0000
0000
0000
0000
,  // measure 56
2300
0000
0000
0000
,  // measure 57
3020
0000
0000
0030
,  // measure 58
0101
0100
0010
0100
,  // measure 59
1001
0001
1000
0100
,  // measure 60
0011
0001
0010
1000
,  // measure 61
0101
1000
0100
0001
,  // measure 62
1010
0000
1000
0001
0010
0001
1000
0000
0001
0010
0000
0010
,  // measure 63
0001
0000
0001
0100
0000
0100
0010
1000
0100
1000
0010
1000
,  // measure 64
0100
0000
0100
0010
0001
0010
0100
0001
0100
1000
0000
0100
,  // measure 65
0010
0000
0001
1000
0000
0010
0001
0000
0010
1000
0000
0100
,  // measure 66
0010
0000
0100
1000
0010
1000
0001
0000
0001
0100
0010
1000
,  // measure 67
0010
0000
0010
0100
0001
1000
0100
0000
0100
0010
0001
0100
,  // measure 68
0010
0000
1000
0100
0000
0100
1000
0000
1000
0001
0000
0001
,  // measure 69
0100
0010
1000
0010
0100
0001
0100
0000
1010
0000
1001
0000
,  // measure 70
0012
0000
0000
0000
,  // measure 71
0000
0000
0000
0200
0000
0000
0000
0000
0000
0000
0303
0000
,  // measure 72
0011
0000
0010
0100
0001
0100
1000
0000
0100
0010
0000
0100
,  // measure 73
1000
0000
0110
0000
0000
1000
0001
0010
0001
1000
0001
0100
,  // measure 74
0010
0100
0001
1000
0010
0100
0001
0000
0001
0100
0000
0100
,  // measure 75
0010
0000
0010
0001
0000
0001
0010
0000
0100
0001
0000
1000
,  // measure 76
0010
0000
1000
0001
0010
0100
1000
0010
1000
0100
0010
0100
,  // measure 77
1000
0000
0000
0000
0000
0000
0000
0000
0000
1000
0000
0000
0001
0000
0000
0000
0010
0000
0000
0000
0100
0000
0000
0000
0001
0000
0000
0000
0100
0000
0000
0000
0010
0000
0000
0000
0001
0000
0000
0000
1000
0000
0000
0000
0001
0000
0000
0000
,  // measure 78
1000
0001
0010
0100
1000
0001
0100
0010
1000
0001
0010
0001
,  // measure 79
1000
0000
0001
0010
0001
1000
0100
0000
0010
0100
1000
0001
,  // measure 80
0100
0000
0100
0010
1000
0001
1000
0000
0001
0100
0000
0010
,  // measure 81
0001
0000
1010
0000
0000
0100
0001
0100
0010
0100
0001
1000
,  // measure 82
0010
0000
0010
0100
1000
0100
0010
0000
1000
0010
0000
0010
,  // measure 83
0100
0000
0001
1000
0000
0100
0010
0000
0100
0001
0000
0001
,  // measure 84
0100
0000
0100
0001
0100
1000
0001
0000
0001
0010
0000
0100
,  // measure 85
0001
0000
1100
0000
0000
0001
0010
0001
1000
0001
0100
0010
,  // measure 86
1000
0100
1000
0010
0100
0001
0010
0001
0100
0010
0001
0010
,  // measure 87
1000
0000
0010
1000
0010
0100
0001
0000
1010
0000
0101
0000
,  // measure 88
2002
0000
0000
0000
,  // measure 89
3003
0000
0000
0000
;
