#TITLE:Avalon no Oka;
#SUBTITLE:;
#ARTIST:Nekomata Master;
#TITLETRANSLIT:;
#SUBTITLETRANSLIT:;
#ARTISTTRANSLIT:;
#CREDIT:;
#BANNER:;
#BACKGROUND:;
#LYRICSPATH:;
#CDTITLE:;
#MUSIC:Avalon no Oka.ogg;
#OFFSET:1.000;
#SAMPLESTART:70.190;
#SAMPLELENGTH:12.000;
#SELECTABLE:YES;
#BPMS:0.000=158.000;
#STOPS:;
#BGCHANGES:;

//---------------dance-single - ----------------
#NOTES:
     dance-single:
     :
     Hard:
     14:
     0.767,0.763,0.017,0.442,1.000: // measure 1
0000
0000
0000
0000
,  // measure 2
0000
0000
0000
0000
,  // measure 3
0000
0000
0000
0000
0000
0000
0000
0000
0000
0000
0000
0001
,  // measure 4
0100
0000
0100
0001
1000
0100
0010
0001
0100
0010
0000
1000
,  // measure 5
0100
0000
0100
1000
0010
0100
0001
0010
0100
0010
0000
0001
,  // measure 6
1000
0000
1000
0010
1000
0001
0010
0001
0100
0001
0000
0100
,  // measure 7
0010
1000
0001
0010
0100
1000
0001
0100
0010
1000
0000
0001
,  // measure 8
0010
0000
0010
0001
0100
0010
1000
0001
0010
0001
0000
1000
,  // measure 9
0001
0000
0001
1000
0001
0100
0010
0100
0001
0010
0000
0001
,  // measure 10
0010
0000
0010
0001
1000
0100
0010
0001
1000
0010
0000
0100
,  // measure 11
0001
0100
0010
1000
0010
0100
0001
0010
0001
0100
0000
0100
,  // measure 12
0020
1000
0001
0100
,  // measure 13
0001
0000
0000
0030
1000
0010
0100
0010
1000
0001
0000
1000
,  // measure 14
0010
0001
0010
1000
0000
0100
0010
0100
1000
0001
0010
0100
,  // measure 15
0010
0000
0010
1000
0010
0001
0100
0010
1000
0100
0010
0001
,  // measure 16
0100
0010
1000
0001
0000
0001
0100
1000
0100
0001
0010
0100
,  // measure 17
0001
0100
1000
0100
1000
0001
0100
0010
0100
0001
0100
0010
,  // measure 18
1000
0100
1000
0010
0000
0010
0100
0001
0010
0001
1000
0100
,  // measure 19
1000
0001
0100
0010
0100
0001
1000
0001
0100
0001
0010
0001
,  // measure 20
0100
0001
0010
0100
0000
0100
1000
0010
1000
0100
0010
0100
,  // measure 21
1000
0001
0100
0010
0100
0001
0010
0100
0010
0001
0100
0010
,  // measure 22
2000
0000
3000
0001
0100
0010
2000
0000
0000
3000
0000
0010
,  // measure 23
1000
0000
0001
0100
1000
0100
0010
1000
0100
1000
0010
1000
,  // measure 24
0200
0000
0000
0310
0001
0100
0020
0000
0000
0000
0000
0000
,  // measure 25
0130
0000
0000
0001
0010
0100
1000
0000
0000
0002
0000
0000
,  // measure 26
0023
0000
0000
0031
0010
0001
0100
0000
0000
0010
0000
0000
,  // measure 27
0100
0001
0100
0010
0000
0010
0100
0001
0010
0100
0000
0100
,  // measure 28
1000
0000
1000
0100
0000
0000
1000
0001
0010
0001
0010
0001
,  // measure 29
1000
0100
1000
0200
0000
0000
0000
0000
0000
0302
0000
0000
,  // measure 30
0203
0000
0000
1300
0010
0100
0002
0000
0000
0000
0000
0000
,  // measure 31
2003
0000
0000
3001
0100
0010
1000
0001
0100
0010
1000
0001
,  // measure 32
0200
0000
0000
0301
1000
0010
0200
0000
0000
0000
0000
0000
,  // measure 33
0320
0000
0000
0130
0001
1000
0100
0000
0000
0200
0000
0000
,  // measure 34
0320
0000
0000
0031
0100
0010
2000
0000
0000
3002
0000
0000
,  // measure 35
0013
0100
0001
0100
0000
0100
1000
0010
0100
0010
0000
0100
,  // measure 36
0010
0000
1000
0002
0000
0000
0000
0000
0000
0023
0000
0000
,  // measure 37
0130
1000
0001
2000
0000
0000
0000
0000
0000
3200
0000
0000
,  // measure 38
0320
0000
0000
1000
0000
0000
0001
0000
0000
0000
0031
0100
,  // measure 39
0001
0010
0001
1000
0000
1000
0100
0010
0100
1000
0000
1000
,  // measure 40
0002
0000
0000
0000
0000
0000
0000
0000
0000
0003
1000
0010
,  // measure 41
1000
0001
0010
0100
0000
0100
0010
0001
1000
0010
0000
1000
,  // measure 42
0200
0000
0000
0302
0000
0000
2003
0000
0000
3010
0001
0100
,  // measure 43
2000
0000
0000
3200
0000
0000
0310
0001
0010
0100
0000
0001
,  // measure 44
2000
0000
0000
0000
0000
3010
0100
0000
0000
0002
0000
0000
,  // measure 45
2003
0100
0010
0100
,  // measure 46
3001
0010
0100
0010
0001
1000
0010
1000
0100
1000
0001
0100
,  // measure 47
0001
0010
0100
0010
1000
0010
0001
0010
0100
0020
0000
0000
,  // measure 48
0130
0010
0100
0010
0000
0001
0010
0001
1000
0100
0000
0100
,  // measure 49
0010
0100
1000
0001
0000
0100
0010
0100
0001
0010
0000
0100
,  // measure 50
2000
0000
0000
0000
3000
0100
2000
0000
0000
3020
0000
0000
,  // measure 51
2030
0001
0010
3002
,  // measure 52
0023
0000
0000
0000
0000
0031
0100
0000
0100
0010
0000
0010
,  // measure 53
0001
0010
1000
0100
0000
0100
0001
0100
1000
0002
0000
0000
,  // measure 54
0203
0000
0000
0000
0000
0310
1000
0000
1000
0010
0000
0010
,  // measure 55
1000
0000
1000
0001
0000
0001
0100
0000
0000
0001
0000
0000
,  // measure 56
0001
0100
0001
0010
0000
0010
0001
0100
0010
0100
0000
0100
,  // measure 57
0010
1000
0010
0100
0000
1000
0100
0000
0100
0002
0000
0000
,  // measure 58
0023
0000
1000
0001
,  // measure 59
0100
0000
0001
0230
,  // measure 60
0302
0000
0000
0000
0000
0103
0010
0000
0010
0100
0000
1000
,  // measure 61
0001
1000
0010
0100
0000
0001
0100
0001
0100
0002
0000
0000
,  // measure 62
0203
0000
0000
0000
0300
0010
0001
0000
0010
0100
0000
0010
,  // measure 63
1000
0000
0010
0001
0000
0010
0200
0000
0000
0320
0000
0000
,  // measure 64
2030
0001
0010
0100
,  // measure 65
3001
0000
0100
0010
0001
0100
0010
1000
0001
0010
0000
0010
,  // measure 66
0001
0000
0001
0010
0001
1000
0100
1000
0010
0100
0000
0100
,  // measure 67
0010
0100
0001
0010
0100
0010
0100
0010
0001
1000
0000
1000
,  // measure 68
0010
0000
0001
0010
1000
0100
0010
1000
0010
0001
0000
0001
,  // measure 69
0100
0000
0001
0100
0010
1000
0010
0100
0010
1000
0000
1000
,  // measure 70
0001
0000
0010
0001
0010
0100
0010
0001
0100
0010
0000
0100
,  // measure 71
0001
0010
0100
0010
0001
0100
0001
0100
0010
1000
0000
0001
,  // measure 72
0200
0001
1000
0010
,  // measure 73
1300
0000
0000
0000
0001
0100
1000
0100
0001
0010
0000
0010
,  // measure 74
1000
0010
0001
0010
0000
0000
0000
0000
0001
0100
1000
0001
,  // measure 75
0010
1000
0100
0001
0100
1000
0001
0000
0110
0110
0000
0000
;
