#TITLE:You Say Aku;
#SUBTITLE:;
#ARTIST:Cinta Laura;
#TITLETRANSLIT:;
#SUBTITLETRANSLIT:;
#ARTISTTRANSLIT:;
#CREDIT:;
#BANNER:you say aku-banner.png;
#BACKGROUND:you say aku-bg.jpg;
#LYRICSPATH:;
#CDTITLE:zimon.png;
#MUSIC:you say aku.mp3;
#OFFSET:-0.080;
#SAMPLESTART:40.373;
#SAMPLELENGTH:11.920;
#SELECTABLE:YES;
#BPMS:0.000=149.020;
#STOPS:;
#BGCHANGES:;

//---------------dance-single - ----------------
#NOTES:
     dance-single:
     :
     Easy:
     3:
     0.232,0.309,0.189,0.041,0.000: // measure 1
0010
0000
0000
0100
0000
0000
0000
0000
,  // measure 2
0001
0000
0000
1000
0000
0000
0000
0000
,  // measure 3
0010
0000
0000
0000
,  // measure 4
0100
0000
0000
0000
,  // measure 5
0001
0000
0000
0000
,  // measure 6
1000
0000
0010
0001
,  // measure 7
0100
0000
0000
0000
,  // measure 8
0010
0000
0000
0000
,  // measure 9
1000
0000
0000
0000
,  // measure 10
0100
0000
0000
0001
,  // measure 11
0100
0000
0000
0000
,  // measure 12
0010
0000
0000
0000
,  // measure 13
0001
0000
0000
0000
,  // measure 14
0100
0000
0000
0100
0000
0000
0000
0000
,  // measure 15
1000
0000
0000
1000
0000
0000
0000
0000
,  // measure 16
0100
0000
0000
0101
0000
0000
0000
0000
,  // measure 17
0001
0000
0000
0001
0000
0000
0000
0000
,  // measure 18
0100
0000
0000
1100
0000
0000
0000
0000
,  // measure 19
0100
0000
0000
0010
0000
0000
0000
0000
,  // measure 20
0100
0000
0000
0010
0000
0000
0000
0000
,  // measure 21
1001
0000
0000
0110
0000
0000
0000
0000
,  // measure 22
0110
0000
0000
1001
0000
0000
0000
0000
,  // measure 23
0001
0000
0000
0100
0000
0000
0010
0000
,  // measure 24
0000
1000
0000
0000
1001
0000
0000
0000
,  // measure 25
1000
0000
0000
0100
0000
0000
0010
0000
,  // measure 26
0000
0001
0000
0000
1001
0000
0000
0000
,  // measure 27
0010
0000
0000
0100
0000
0000
0010
0000
,  // measure 28
0000
0100
0000
0000
1001
0000
0000
0000
,  // measure 29
0020
0000
1030
0000
,  // measure 30
0200
0000
0301
0000
,  // measure 31
0010
0000
0000
0010
0000
0000
1000
0000
,  // measure 32
0100
0000
0000
0100
0000
0000
0001
0000
,  // measure 33
1000
0000
0000
1000
0000
0000
0010
0000
,  // measure 34
0001
0001
1000
1000
,  // measure 35
0010
0000
0000
0010
0000
0000
1000
0000
,  // measure 36
0100
0000
0000
0100
0000
0000
0001
0000
,  // measure 37
1000
0000
0000
1000
0000
0000
0010
0000
,  // measure 38
1000
1000
0001
0001
,  // measure 39
0110
0000
0000
1001
0000
0000
0000
0000
,  // measure 40
0100
0000
0000
0010
0000
0000
0000
0000
,  // measure 41
0100
0000
0000
1001
0000
0000
0001
0000
,  // measure 42
0010
0100
1000
0001
,  // measure 43
0110
0000
0000
1001
0000
0000
0000
0000
,  // measure 44
0100
0000
0000
0010
0000
0000
0000
0000
,  // measure 45
1000
0000
0000
0001
0000
0000
0000
0000
,  // measure 46
0100
0100
0000
0010
0000
2000
3001
0000
;

//---------------dance-single - ----------------
#NOTES:
     dance-single:
     :
     Medium:
     5:
     0.363,0.340,0.014,0.041,0.000:
0010
0000
0000
0100
0000
0000
0000
0000
,
0010
0010
0000
0100
0000
0000
0000
0000
,
0001
0000
0000
0001
0000
1000
1000
0000
,
0100
0000
0000
0100
0000
0010
0010
0000
,
1000
0000
0000
1000
0000
0001
0001
0000
,
0010
0010
0000
0010
0000
0100
0100
0000
,
0001
0000
0000
0010
0000
0100
1000
0000
,
1000
0000
0000
0010
0000
0100
0001
0000
,
0100
0000
0000
0100
0000
0001
1000
0000
,
0010
0010
0000
0010
0000
1000
0001
0100
,
0001
0000
0000
0010
0000
0100
1000
0000
,
1000
0000
0000
0010
0000
0100
0001
0000
,
0100
0000
0000
0100
0000
0001
1000
0000
,
0010
0010
0000
0010
0000
1000
0001
1000
,
0001
0000
0000
0010
0000
0100
1000
0000
,
1000
0000
0000
0010
0000
0100
0001
0000
,
0100
0000
0000
0100
0000
0001
1000
0000
,
0010
0010
0000
0010
0000
1000
0001
0100
,
0001
0000
0000
0010
0000
0100
1000
0000
,
1000
0000
0000
0010
0000
0100
0001
0000
,
0100
0000
0000
0100
0000
0001
1000
0000
,
0010
0010
0000
0010
0000
1000
0001
1000
,
0001
0000
0000
0001
0000
0000
0001
0000
,
0000
1000
0000
0000
1000
0000
0000
0000
,
0100
0000
0000
0010
0000
0000
0100
0000
,
0000
0010
0000
0000
1000
0000
0011
0000
,
1000
0000
0000
1000
0000
0000
1000
0000
,
0000
0001
0000
0000
0001
0000
0100
0000
,
0020
0000
1030
0000
,
0200
0000
0301
0000
,
0001
0000
0000
0001
0000
1000
0010
0000
,
1000
0000
0000
1000
0000
0001
0010
0000
,
0100
0000
0000
0100
0000
0001
1000
0000
,
0010
0010
0000
0100
0000
1000
0001
0000
,
0001
0000
0000
0001
0000
1000
0010
0000
,
1000
0000
0000
1000
0000
0001
0010
0000
,
0100
0000
0000
0100
0000
0001
1000
0000
,
0010
0010
0000
0100
0000
0010
0100
0000
,
1000
0000
0000
0100
0000
0010
1000
0000
,
0001
0000
0000
0100
0000
0010
0001
0000
,
0100
0000
0000
0100
0000
0001
1000
0000
,
0010
0010
0000
0100
0000
1000
0001
0000
,
0010
0000
0000
0100
0000
0010
1000
0000
,
0001
0000
0000
1000
0000
0010
0001
0000
,
0100
0000
0000
0100
0000
0001
1000
0000
,
0010
0010
0100
0100
0000
0002
1003
0000
;

//---------------dance-single - ----------------
#NOTES:
     dance-single:
     :
     Hard:
     7:
     0.508,0.495,0.095,0.041,0.000:
0010
0000
0001
0100
0000
0101
1100
0000
,
0010
0010
1000
1001
0000
0100
1000
0001
,
0010
0000
1100
0010
0000
1000
0001
0100
,
0100
0000
0010
0100
0000
0001
1000
0000
,
0010
0000
0100
0010
0000
1000
0001
0000
,
0010
0010
0100
0010
0000
0001
1000
0001
,
0100
0000
0010
0100
0000
1000
0001
0000
,
1000
0000
0100
1000
0000
0001
0010
0000
,
0100
0000
0010
0100
0000
0001
1000
0000
,
0001
0001
0010
0001
0000
1000
0100
1000
,
0100
0000
0010
0100
0000
0001
1000
0000
,
0001
0000
0100
0001
0000
1000
0100
0000
,
0010
0000
0010
0100
0000
0001
1000
0000
,
0001
0001
0010
0001
0000
1000
0100
1000
,
0010
0000
0100
0001
0000
0100
0001
0000
,
1000
0000
0100
1000
0000
0001
0010
0000
,
0100
0000
0010
0100
0000
0001
1000
0000
,
0001
0001
0010
0001
0000
1000
0100
1000
,
0010
0000
0100
0010
0000
0001
1000
0000
,
0001
0000
0100
0001
0000
1000
0100
0000
,
0010
0000
0010
0100
0000
0001
1000
0000
,
0001
0001
0010
0001
0000
1000
0100
1000
,
0110
0000
1000
0001
0000
1000
0001
0000
,
0100
0010
0000
1000
0001
0000
0000
0000
,
0110
0000
0001
1000
0000
0001
1000
0000
,
0100
0010
0000
0001
1000
0000
0001
0000
,
0110
0000
1000
0001
0000
1000
0001
0000
,
0100
0010
0000
1000
0001
0000
0000
0000
,
0020
0000
0031
1000
0000
0001
1000
0000
,
0020
0000
0031
1000
0001
0010
0100
1000
,
0001
0000
0100
0001
0000
1000
0010
0000
,
1000
0000
0100
1000
0000
0001
0010
0000
,
0100
0000
0010
0100
0000
0001
1000
0000
,
0010
0010
0100
0100
0001
0010
0100
1000
,
0001
0000
0100
0001
0000
1000
0010
0000
,
1000
0000
0100
1000
0000
0001
0010
0000
,
0100
0000
0010
0100
0000
0001
1000
0000
,
0010
0010
0100
0100
0001
0010
0100
1000
,
0010
0000
0100
0100
0000
0010
1000
0000
,
0001
0000
0100
1000
0000
0001
0010
0000
,
0100
0000
0010
0100
0000
0001
1000
0000
,
0010
0010
0100
0100
0001
0010
0100
1000
,
0010
0000
0100
0100
0000
0010
1000
0000
,
0001
0000
0100
1000
0000
0001
0010
0000
,
0100
0000
0010
0100
0000
0001
1000
0000
,
0010
0010
0100
0100
0000
0002
1003
0000
;
