#TITLE:Sexy Naughty Bitchy Me;
#SUBTITLE:;
#ARTIST:Tata Young;
#TITLETRANSLIT:;
#SUBTITLETRANSLIT:;
#ARTISTTRANSLIT:;
#CREDIT:;
#BANNER:Sexy Naughty Bitchy Me-banner.png;
#BACKGROUND:Sexy Naughty Bitchy Me-bg.png;
#LYRICSPATH:;
#CDTITLE:zimon.png;
#MUSIC:Sexy Naughty Bitchy Me.mp3;
#OFFSET:-0.440;
#SAMPLESTART:0.050;
#SAMPLELENGTH:11.920;
#SELECTABLE:YES;
#BPMS:0.000=196.120;
#STOPS:;
#BGCHANGES:0.000=Sexy Naughty Bitchy Me.avi=1.000=0=0=1,
99999=-nosongbg-=1.000=0=0=0 // don't automatically add -songbackground-
;

//---------------dance-single - ----------------
#NOTES:
     dance-single:
     :
     Easy:
     3:
     0.215,0.282,0.058,0.000,0.000:
0001
0000
0000
0000
,
1000
0000
0000
0000
,
0100
0000
0000
0000
,
0000
1000
1000
0000
,
0010
0000
0000
0000
,
1000
0000
0000
0000
,
0001
0000
0000
0000
,
0000
0100
0100
0000
,
0001
0000
0000
0000
,
0100
0000
0000
0000
,
1000
0000
0000
0000
,
0000
0100
0100
0000
,
1000
0000
0000
0000
,
0100
0000
0000
0000
,
1000
0000
0100
0000
,
0001
0001
1000
0000
,
0010
0000
0010
0000
,
1000
0000
1000
0000
,
0000
0000
0100
0000
,
0001
0000
1000
0000
,
0000
0000
0010
0000
,
1000
0000
0001
0000
,
0010
0000
0000
0000
,
1000
0001
0001
0000
,
0110
0000
0100
0000
,
1000
0000
0001
0000
,
0000
0000
0010
0000
,
0100
0000
0001
0000
,
0000
0000
0100
0000
,
0001
0000
1000
0000
,
0001
0000
0000
0000
,
0010
0100
0001
0000
,
1001
0000
0100
0000
,
0000
0000
0010
0000
,
0000
0000
0100
0000
,
0000
0000
1000
0000
,
0010
0000
0001
0000
,
0100
0000
1000
0000
,
1000
0000
0001
0000
,
0010
0001
1001
0000
,
0100
0000
1000
0000
,
0010
0000
0001
0000
,
1000
0000
0001
0000
,
1000
0010
0001
0000
,
0010
0000
0001
0000
,
0100
0000
1000
0000
,
0001
0000
1000
0000
,
0001
0010
1000
0000
,
0100
0000
1000
0000
,
0100
0000
0001
0000
,
0010
0000
0100
0000
,
0010
1000
1000
0000
,
0100
0000
0010
0000
,
0100
0000
0001
0000
,
0100
0000
0100
0000
,
0001
1000
0110
0000
;

//---------------dance-single - Copied from----------------
#NOTES:
     dance-single:
     Copied from:
     Medium:
     5:
     0.340,0.402,0.290,0.000,0.000:
0001
0000
0000
0000
,
0001
0000
0000
0000
,
0100
0000
0000
0000
,
0000
1000
0001
0000
,
1000
0000
0000
0000
,
1000
0000
0000
0000
,
0010
0000
0000
0000
,
0000
0001
1000
0000
,
0001
0000
1000
0000
,
0100
0000
1000
0100
0000
0000
0000
0000
,
0001
0000
0010
0100
,
0000
0001
1000
0000
,
1000
0000
0010
0000
,
0100
0000
0001
0100
0000
0000
0000
0000
,
1000
0010
0100
0010
,
0001
0001
0001
0000
,
0010
0000
0010
0000
,
1000
0001
1000
0000
,
0100
0000
0100
0000
,
0001
0010
1000
0000
,
0001
0000
0010
0000
,
0100
1000
0001
0000
,
0010
0000
1000
0000
,
0010
0001
1001
0000
,
0100
0000
0100
0000
,
1000
0010
0001
0000
,
0010
0000
0010
0000
,
1000
0100
0001
0000
,
1000
0000
0100
0000
,
0010
0001
1000
0000
,
0010
0000
0001
0000
,
0010
0100
1001
0000
,
0001
0000
0100
0000
,
1000
0000
0010
0000
,
0001
0000
0100
0000
,
0010
0000
1000
0000
,
0010
0100
0001
1000
,
0100
0010
1000
0100
,
0001
0010
0001
1000
,
0010
0001
1001
0000
,
0100
0100
1001
0000
,
0010
0100
0011
0000
,
1000
0100
1001
0001
,
0000
0010
0101
0000
,
0010
1000
1001
0000
,
0100
0010
1100
0000
,
0001
0001
1010
1000
,
0000
0010
1001
0000
,
0100
0010
1001
0000
,
0100
0001
0101
0000
,
0010
0001
1100
0001
,
0000
1000
1100
0000
,
0100
0001
0110
0000
,
0100
1000
0101
0000
,
0100
0010
0101
1000
,
0001
0110
1001
0000
;

//---------------dance-single - Copied from Copied f----------------
#NOTES:
     dance-single:
     Copied from Copied f:
     Hard:
     7:
     0.443,0.684,0.232,0.000,0.000: // measure 1
0001
0000
0010
0000
,  // measure 2
0001
1000
0100
0000
,  // measure 3
0100
0000
0001
1000
0000
0000
1000
0000
,  // measure 4
0000
0010
0110
0000
,  // measure 5
1000
0000
0100
0000
,  // measure 6
1000
0100
0001
0000
,  // measure 7
0010
0000
1000
0001
0100
0000
0001
0000
,  // measure 8
0000
1000
1001
0000
,  // measure 9
0001
0000
1000
0000
,  // measure 10
0100
0000
0010
0001
0000
0000
0000
0000
,  // measure 11
0001
1000
0010
0001
,  // measure 12
0000
0100
0100
0000
,  // measure 13
1000
0000
0010
0000
,  // measure 14
0100
0000
1000
0001
0000
0000
0000
0000
,  // measure 15
1000
0001
0100
1000
,  // measure 16
0001
0100
1001
0000
,  // measure 17
0010
0000
1000
0100
0010
0000
0000
0000
,  // measure 18
0100
0001
1000
0000
,  // measure 19
0010
0000
0001
0100
0010
0000
0000
0000
,  // measure 20
0100
1000
0001
0000
,  // measure 21
0001
0000
1000
0100
0010
0000
0000
0000
,  // measure 22
0100
1000
0001
0000
,  // measure 23
1000
0000
0001
0100
0010
0000
0000
0000
,  // measure 24
0100
0001
1000
0000
,  // measure 25
0100
0000
0010
0001
0100
0000
0000
0000
,  // measure 26
1000
1000
0001
0000
,  // measure 27
0100
0000
0010
1000
0100
0000
0000
0000
,  // measure 28
0001
0001
1000
0000
,  // measure 29
1000
0000
0010
0001
0100
0000
0000
0000
,  // measure 30
0001
0100
0100
0000
,  // measure 31
0001
0000
0010
1000
0100
0000
0000
0000
,  // measure 32
0010
0110
1001
0000
,  // measure 33
0001
0001
0100
0010
,  // measure 34
1000
1000
0010
0100
,  // measure 35
0001
0001
0100
1000
,  // measure 36
0010
0100
1000
0001
,  // measure 37
0010
0001
0100
1000
0100
0001
0010
0001
,  // measure 38
0100
1000
0100
0001
0010
0001
0100
1000
,  // measure 39
0100
0001
0010
0001
0100
1000
0100
0001
,  // measure 40
0010
0001
1001
0000
,  // measure 41
0100
0001
1001
0000
,  // measure 42
0010
0000
0100
1000
0001
0000
0000
0000
,  // measure 43
1000
0100
1001
0100
,  // measure 44
0000
1000
0110
0000
,  // measure 45
0010
1000
1001
0000
,  // measure 46
0100
0000
0010
0001
1000
0000
0000
0000
,  // measure 47
0001
0001
1010
0001
,  // measure 48
0000
1000
0110
0000
,  // measure 49
0100
0010
1000
0000
,  // measure 50
0100
0000
0010
0001
1000
0000
0000
0000
,  // measure 51
0010
0100
0001
1000
,  // measure 52
0000
1001
1001
0000
,  // measure 53
0100
0001
0010
0000
,  // measure 54
0100
0000
1000
0001
1000
0000
0000
0000
,  // measure 55
0010
0100
0010
1000
,  // measure 56
0001
0110
1001
0000
;

//---------------dance-single - Copied from----------------
#NOTES:
     dance-single:
     Copied from:
     Beginner:
     2:
     0.141,0.241,0.000,0.000,0.000:
0001
0000
0000
0000
,
0000
0000
0000
0000
,
0100
0000
0000
0000
,
0000
0000
0000
0000
,
0001
0000
0000
0000
,
0000
0000
0000
0000
,
1000
0000
0000
0000
,
0000
0000
0000
0000
,
0001
0000
0000
0000
,
0100
0000
0000
0000
,
0001
0000
0000
0000
,
0000
0100
0100
0000
,
0001
0000
0000
0000
,
0100
0000
0000
0000
,
1000
0000
0000
0000
,
0001
0001
0001
0000
,
0000
0000
0010
0000
,
0000
0000
1000
0000
,
0000
0000
0100
0000
,
0000
0000
1000
0000
,
0000
0000
0010
0000
,
0000
0000
0001
0000
,
0000
0000
1000
0000
,
0000
0001
0001
0000
,
0000
0000
0100
0000
,
0000
0000
0001
0000
,
0000
0000
0010
0000
,
0000
0000
0001
0000
,
0000
0000
0100
0000
,
0000
0000
1000
0000
,
0000
0000
0001
0000
,
1000
1000
1000
0000
,
0001
0000
0000
0000
,
0010
0000
0000
0000
,
0100
0000
0000
0000
,
1000
0000
0000
0000
,
0001
0000
0001
0000
,
1000
0000
1000
0000
,
0010
0000
0010
0000
,
0100
0100
0100
0000
,
0001
0000
0000
0000
,
0010
0000
0000
0000
,
1000
0000
0000
0000
,
0000
0100
0100
0000
,
0010
0000
0000
0000
,
0100
0000
0000
0000
,
0001
0000
0000
0000
,
0000
1000
1000
0000
,
0100
0000
0000
0000
,
0010
0000
0000
0000
,
0001
0000
0000
0000
,
0000
1000
1000
0000
,
0100
0000
0000
0000
,
0010
0000
0000
0000
,
0100
0000
0000
0000
,
0001
1000
0001
0000
;
